Ссылка на приватное зеркало нашего сайта всего за 1$. Внимание количество ограничено!!!

2 сезон

iTunes

1 сезон

1

iTunes

iTunes

iTunes

1 сезон

RePack

30

ИГРА 18+

pack

ВАЖНО

!!Акция!!

Alien_RageХит недели

RePack

MK11
pack

Забери бонус

RePack

jed

!!Акция!!

Alien_Rage

RePack

fifa19

RePack

Assassins Creed: Odyssey

RePack

NEED FOR SPEED™ PAYBACK

4 сезон

9 сезон

Бесстыжие 9 сезон

Все сериалы

все сериалы на PB.wtf

RePack

FAR CRY 5
  

Револьвер / Revolver (Серджо Соллима) [1973, драма, криминал, триллер, BDRip 1080p by msltel] VO pb.wtf

Револьвер через торрент pb.wtf

Размер: 15.42 GB | Добавлен: 8 мес. назад | Торрент скачан:1 раз
Скачать  

12-02-2020 12:43 Револьвер Скачать торрент  

Название: Револьвер
Оригинальное название: Revolver
Год выпуска: 1973
Страна: Италия, Франция, Германия (ФРГ)
Жанр: драма, криминал, триллер
Продолжительность: 01:49:32
Перевод: любительский одноголосый
Режиссер: Серджо Соллима
В ролях: Оливер Рид, Фабио Тести, Паола Питагора, Агостина Белли, Фредерик де Паскуале, Марк Мацца, Райнхард Колльдехофф, Бернар Жиродо, Петер Берлинг, Гуннар Уорнер, Даниэль Беретта, Калисто Калисти, Стеффен Захариас, Мишель Бардинет, Сальваторе Боргезе, Джованни Паллавичино, Амато Гарбини, Карла Манчини, Орацио Стракуцци, Марко Мариани, Жан Деграв, Франко Моральди, Оттавио Фанфани, Джанни Бортолотти

О фильме: Бандиты похищают жену заместителя начальника миланской тюрьмы и угрожают убить её, если тот не выпустит на свободу некоего Майло. Вскоре выясняется, что Майло — опасный свидетель, и преступники просто хотят его устранить...



Качество: BDRip 1080p
Формат: MKV
Видео: MPEG-4 AVC, 19.6 Mбит/с, 1920x1048
Аудио 1: русский, AC3, 192 kbps, 2 ch, 48 kHz [закадровый одноголосый, ССК+]
Аудио 2: итальянский, DTS, 384 kbps, 1 ch, 48 kHz [оригинал]
Субтитры: английские
Главы/чаптеры
Общее
Уникальный идентификатор : 200140542731589026470682322247853921477 (0x9691AA9B5EE338BD96109CF77885D4C5)
Полное имя : D:\Video\Револьвер.1973.BDRip 1080p by msltel.mkv
Формат : Matroska
Версия формата : Version 4
Размер файла : 15,4 Гбайт
Продолжительность : 1 ч. 49 м.
Общий поток : 20,2 Мбит/сек
Название фильма : Rip by msltel
Дата кодирования : UTC 2020-02-12 10:37:52
Программа кодирования : mkvmerge v8.2.0 ('World of Adventure') 64bit
Библиотека кодирования : libebml v1.3.1 + libmatroska v1.4.2

Видео
Идентификатор : 1
Формат : AVC
Формат/Информация : Advanced Video Codec
Профиль формата : High@L4.1
Настройки формата : CABAC / 4 Ref Frames
Параметр CABAC формата : Да
Параметр RefFrames формата : 4 кадра
Идентификатор кодека : V_MPEG4/ISO/AVC
Продолжительность : 1 ч. 49 м.
Битрейт : 19,6 Мбит/сек
Ширина : 1920 пикселей
Высота : 1048 пикселей
Соотношение сторон : 1,85:1
Режим частоты кадров : Постоянный
Частота кадров : 24,000 кадра/сек
Цветовое пространство : YUV
Субдискретизация насыщенности : 4:2:0
Битовая глубина : 8 бит
Тип развёртки : Прогрессивная
Бит/(Пиксели*Кадры) : 0.405
Размер потока : 15,0 Гбайт (97%)
Библиотека кодирования : x264 core 157 r2969 d4099dd
Настройки программы : cabac=1 / ref=4 / deblock=1:-1:-1 / analyse=0x3:0x113 / me=umh / subme=11 / psy=1 / psy_rd=1.00:0.15 / mixed_ref=1 / me_range=32 / chroma_me=1 / trellis=2 / 8x8dct=1 / cqm=0 / deadzone=21,11 / fast_pskip=0 / chroma_qp_offset=-3 / threads=6 / lookahead_threads=1 / sliced_threads=0 / nr=0 / decimate=1 / interlaced=0 / bluray_compat=0 / constrained_intra=0 / bframes=11 / b_pyramid=2 / b_adapt=2 / b_bias=0 / direct=1 / weightb=1 / open_gop=0 / weightp=2 / keyint=230 / keyint_min=23 / scenecut=40 / intra_refresh=0 / rc_lookahead=40 / rc=crf / mbtree=1 / crf=20.9 / qcomp=0.60 / qpmin=0 / qpmax=69 / qpstep=4 / vbv_maxrate=50000 / vbv_bufsize=62500 / crf_max=0.0 / nal_hrd=none / filler=0 / ip_ratio=1.40 / aq=1:1.00
Язык : Italian
Default : Да
Forced : Нет

Аудио #1
Идентификатор : 2
Формат : AC-3
Формат/Информация : Audio Coding 3
Коммерческое название : Dolby Digital
Идентификатор кодека : A_AC3
Продолжительность : 1 ч. 49 м.
Вид битрейта : Постоянный
Битрейт : 192 Кбит/сек
Каналы : 2 канала
ChannelLayout : L R
Частота : 48,0 КГц
Частота кадров : 31,250 кадров/сек (1536 SPF)
Метод сжатия : С потерями
Размер потока : 150 Мбайт (1%)
Заголовок : ССК+
Язык : Russian
ServiceKind/String : Complete Main
Default : Да
Forced : Нет

Аудио #2
Идентификатор : 3
Формат : DTS
Формат/Информация : Digital Theater Systems
Идентификатор кодека : A_DTS
Продолжительность : 1 ч. 49 м.
Вид битрейта : Постоянный
Битрейт : 384 Кбит/сек
Каналы : 1 канал
ChannelLayout : C
Частота : 48,0 КГц
Частота кадров : 93,750 кадра/сек (512 SPF)
Битовая глубина : 16 бит
Метод сжатия : С потерями
Размер потока : 301 Мбайт (2%)
Заголовок : original
Язык : Italian
Default : Нет
Forced : Нет

Текст
Идентификатор : 4
Формат : UTF-8
Идентификатор кодека : S_TEXT/UTF8
Идентификатор кодека/Информация : UTF-8 Plain Text
Продолжительность : 1 ч. 46 м.
Битрейт : 45 бит/сек
ElementCount : 1122
Размер потока : 35,6 Кбайт (0%)
Заголовок : английские
Язык : English
Default : Нет
Forced : Нет

Меню
00:00:00.000 : en:Chapter 1
00:05:21.083 : en:Chapter 2
00:14:41.666 : en:Chapter 3
00:23:59.166 : en:Chapter 4
00:34:39.416 : en:Chapter 5
00:47:30.541 : en:Chapter 6
00:57:30.583 : en:Chapter 7
01:03:31.541 : en:Chapter 8
01:05:05.916 : en:Chapter 9
01:11:51.083 : en:Chapter 10
01:21:04.416 : en:Chapter 11
01:31:03.416 : en:Chapter 12
01:34:31.541 : en:Chapter 13
01:41:00.000 : en:Chapter 14
01:46:55.791 : en:Chapter 15
pb.wtf



Скачать Револьвер через торрент https://c.radikal.ru/c43/2002/4d/7f0f5ebc1ceb.jpg Скачать фильм Револьвер через торрент бесплантно в хорошем качестве О фильме: Бандиты похищают жену заместителя начальника миланской тюрьмы и угрожают убить её, если тот не выпустит на свободу некоего Майло. ... 5 10 1
Торрент: Зарегистрирован [2020-02-12 12:43] · скачан: 1 раз
Статус: √ проверено
Размер: 15.42 GB
Как cкачать? Как скачать Револьвер через торрент | qTorrent

% Раздел Тема Автор DL S | L
Классика зарубежного кино [ 5.38 GB ] Револьвер / Revolver [1973 BDRip 720p by msltel] VO msltel Скачать
1 | 0
Классика зарубежного кино [ 3 GB ] Револьвер / Revolver [1973 BDRip-AVC by msltel] VO msltel Скачать
1 | 0
Фильмы [HD 720p, 1080p] (Хороший звук DUB, MVO) [ 7.76 GB ] Револьвер / Revolver [2005 BDRip 1080p + Оригинал] Бумер Скачать
4 | 0
Фильмы 2001-2005 [ 1.46 GB ] Револьвер / Revolver [2005 HDRip] markfiter Скачать
3 | 0
Индийское кино [ 1.42 GB ] Револьвер Рани / Revolver Rani [2014 DVDRip Любительский [den904 DeadSno] Ворон Скачать
1 | 0
Фильмы [HD 720p, 1080p] (Хороший звук DUB, MVO) [ 8.3 GB ] Револьвер / Revolver [2005 BDRip 720p] diletant Скачать
1 | 0
Фильмы 2001-2005 [ 2.26 GB ] Револьвер / Revolver [2005 BDRip ] -4444- Скачать
1 | 0

28-11-2019 20:33  

Отключить всю рекламу на сайте

    Дорогой пользователь! Огромная просьба, поблагодарите релизера, оцените раздачу и оставьте свои комментарий, если Вы скачали Револьвер через торрент бесплатно! Внесите свою лепту в развитие PiratBit!
    Комментировать посты могут только пользователи прошедшие не сложную регистрацию
    Показать сообщения:    

    Револьвер через торрент
    Скачать бесплатно Револьвер
    Револьвер скачать торрент
    Револьвер смотреть онлайн
    Cкачать фильм Револьвер бесплатно
    Револьвер скачать торрент в хорошем качестве
    Револьвер смотреть онлайн бесплатно в хорошем качестве


    Вы не можете начинать темы
    Вы не можете отвечать на сообщения
    Вы не можете редактировать свои сообщения
    Вы не можете удалять свои сообщения
    Вы не можете голосовать в опросах
    Вы не можете прикреплять файлы к сообщениям
    Вы можете скачивать файлы