Ссылка на приватное зеркало всего за 1$. Внимание количество ограничено!!!

iTunes

1+1

iTunes

мы

MV0

1

WEB-DLRip

Джокер

Пифагор

Ведьмак / The Witcher сериал

iTunes

ПШазам

iTunes

Оно 2

iTunes

30
pack

Вам бонус

ВАЖНО

!!Акция!!

Alien_RageХит недели

RePack

Resident Evil 21

ИГРА 18+

pack

RePack

jed

!!Акция!!

Alien_Rage

RePack

fifa19

RePack

Assassins Creed: Odyssey

RePack

NEED FOR SPEED™ PAYBACK

4 сезон

9 сезон

Бесстыжие 9 сезон

Все сериалы

все сериалы на PB.wtf

RePack

FAR CRY 5
  

Удивительное путешествие доктора Дулиттла / Dolittle (Стивен Гейган) [2020, фэнтези, комедия, приключения, семейный, WEBRip 1080p] [MVO] (HDRezka Studio) pb.wtf

Удивительное путешествие доктора Дулиттла через торрент pb.wtf

Раздают: 52 [ 3 MB/s ]
Размер: 3.57 GB | Добавлен: 6 д. назад | Торрент скачан:433 раза
Скачать  

12-02-2020 15:24 Удивительное путешествие доктора Дулиттла Скачать торрент  

Удивительное путешествие доктора Дулиттла / Dolittle
Год выпуска: 2020
Страна: США, Китай, Великобритания
Жанр: фэнтези, комедия, приключения, семейный
Продолжительность: 01:29:55
Перевод: Профессиональный (многоголосый) *HDRezka Studio *
Субтитры: русские (форсированные на надписи)

Режиссер: Стивен Гейган

В ролях: Роберт Дауни мл., Антонио Бандерас, Майкл Шин, Джим Бродбент, Джесси Бакли, Гарри Коллетт, Эмма Томпсон, Рами Малек, Джон Сина, Кумэйл Нанджиани

Описание: Семь лет назад доктор Дулиттл, прославленный врач-ветеринар, живущий в викторианской Англии, потерял свою жену. Теперь он ведет затворнический образ жизни, скрывшись за высокими стенами своего поместья. Экзотические животные из его коллекции - его единственная компания. Но когда неизвестная болезнь становится угрозой для жизни юной королевы, доктору Дулиттлу приходится покинуть свое убежище и отправиться в невероятное путешествие к мифическому острову. В поисках лекарства для королевы он вступит в схватку с беспощадными врагами, познакомится с диковинными существами и будет вынужден проявить недюжинное мужество и смекалку.

rating

Качество: WEBRip 1080p
Формат: MKV
Видео: h.264, 1920x1040, 5 500 Kbps, 30.000 fps
Аудио: 48.0 KHz, AC3, 2 ch, 192 Кбит/с
General
Unique ID : 190406112932344763074850451168814208288 (0x8F3EE229B801E7D777BFE8C6E9C49520)
Complete name : F:\Dolittle.2020.webdl1080p.mkv
Format : Matroska
Format version : Version 4 / Version 2
File size : 3.57 GiB
Duration : 1h 29mn
Overall bit rate : 5 697 Kbps
Encoded date : UTC 2020-02-12 20:47:06
Writing application : mkvmerge v33.1.0 ('Primrose') 64-bit
Writing library : libebml v1.3.7 + libmatroska v1.5.0

Video
ID : 1
Format : AVC
Format/Info : Advanced Video Codec
Format profile : High@L4.1
Format settings, CABAC : Yes
Format settings, ReFrames : 4 frames
Codec ID : V_MPEG4/ISO/AVC
Duration : 1h 29mn
Bit rate : 5 500 Kbps
Width : 1 920 pixels
Height : 1 040 pixels
Display aspect ratio : 1.85:1
Frame rate mode : Constant
Frame rate : 30.000 fps
Color space : YUV
Chroma subsampling : 4:2:0
Bit depth : 8 bits
Scan type : Progressive
Bits/(Pixel*Frame) : 0.092
Stream size : 3.38 GiB (95%)
Writing library : x264 core 148 r2748 97eaef2
Encoding settings : cabac=1 / ref=4 / deblock=1:0:0 / analyse=0x3:0x113 / me=umh / subme=9 / psy=1 / psy_rd=1.00:0.00 / mixed_ref=1 / me_range=16 / chroma_me=1 / trellis=2 / 8x8dct=1 / cqm=0 / deadzone=21,11 / fast_pskip=1 / chroma_qp_offset=-2 / threads=72 / lookahead_threads=6 / sliced_threads=0 / nr=0 / decimate=1 / interlaced=0 / bluray_compat=0 / constrained_intra=0 / bframes=3 / b_pyramid=2 / b_adapt=2 / b_bias=0 / direct=3 / weightb=1 / open_gop=0 / weightp=2 / keyint=250 / keyint_min=25 / scenecut=40 / intra_refresh=0 / rc_lookahead=50 / rc=abr / mbtree=1 / bitrate=5500 / ratetol=1.0 / qcomp=0.60 / qpmin=0 / qpmax=69 / qpstep=4 / ip_ratio=1.40 / aq=1:1.00
Default : Yes
Forced : No

Audio
ID : 2
Format : AC-3
Format/Info : Audio Coding 3
Mode extension : CM (complete main)
Format settings, Endianness : Big
Codec ID : A_AC3
Duration : 1h 29mn
Bit rate mode : Constant
Bit rate : 192 Kbps
Channel(s) : 2 channels
Channel positions : Front: L R
Sampling rate : 48.0 KHz
Compression mode : Lossy
Delay relative to video : -31ms
Stream size : 123 MiB (3%)
Language : Russian
Default : Yes
Forced : No

скриншот  скриншот  скриншот  

pb.wtf



Скачать Удивительное путешествие доктора Дулиттла через торрент https://i111.fastpic.ru/big/2020/0212/6f/2fc8e112fb0c4a5480e7e0b1f1a08c6f.jpg Скачать фильм Удивительное путешествие доктора Дулиттла через торрент бесплантно в хорошем качестве Описание: Семь лет назад доктор Дулиттл, прославленный врач-ветеринар, живущий в викторианской Англии, потерял свою жену. Теперь он ведет ... 9.4 10 24
Торрент: Зарегистрирован [2020-02-13 06:35] · скачан: 433 раз
Статус: T временная
Размер: 3.57 GB
Как cкачать? Как скачать Удивительное путешествие доктора Дулиттла через торрент | qTorrent

% Раздел Тема Автор DL S | L
T Фильмы (мультфильмы) cо спонсором показа (Новинки AVI/MKV) [ 3.83 GB ] Удивительное путешествие доктора Дулиттла / Dolittle [2020 WEB-DL 720p] MVO [AlphaProject] bober100 Скачать
17 | 0
T Фильмы 2019-2020 [DVDrip, WEB-DLRip, HDrip] (DUB, MVO) [ 1.65 GB ] Удивительное путешествие доктора Дулиттла / Dolittle [2020 WEBRip] [MVO] killermax2013 Скачать
89 | 4
x Фильмы (мультфильмы) cо спонсором показа (Новинки AVI/MKV) [ 4.49 GB ] Удивительное путешествие доктора Дулиттла / Dolittle [2020 WEB-DL 1080p] MVO [AlphaProject] bober100 Скачать
31 | 1
x Фильмы (мультфильмы) cо спонсором показа (Новинки AVI/MKV) [ 1.37 GB ] Удивительное путешествие доктора Дулиттла / Dolittle [2020 WEB-DLRip] MVO [AlphaProject] bober100 Скачать
35 | 1


Последний раз редактировалось: killermax2013 (2020-02-13 06:36), всего редактировалось 4 раз(а)

28-11-2019 20:33  

Отключить всю рекламу на сайте

18-02-2020 19:40 Удивительное путешествие доктора Дулиттла Скачать торрент  

Волынку из жопы дракона достал?какое же говно я только что посмотрел)))Раздающему спасибо режисера обосцатьpb.wtf



    Дорогой пользователь! Огромная просьба, поблагодарите релизера, оцените раздачу и оставьте свои комментарий, если Вы скачали Удивительное путешествие доктора Дулиттла через торрент бесплатно! Внесите свою лепту в развитие PiratBit!
    Комментировать посты могут только пользователи прошедшие не сложную регистрацию
    Показать сообщения:    

    Удивительное путешествие доктора Дулиттла через торрент
    Скачать бесплатно Удивительное путешествие доктора Дулиттла
    Удивительное путешествие доктора Дулиттла скачать торрент
    Удивительное путешествие доктора Дулиттла смотреть онлайн
    Cкачать фильм Удивительное путешествие доктора Дулиттла бесплатно
    Удивительное путешествие доктора Дулиттла скачать торрент в хорошем качестве
    Удивительное путешествие доктора Дулиттла смотреть онлайн бесплатно в хорошем качестве


    Вы не можете начинать темы
    Вы не можете отвечать на сообщения
    Вы не можете редактировать свои сообщения
    Вы не можете удалять свои сообщения
    Вы не можете голосовать в опросах
    Вы не можете прикреплять файлы к сообщениям
    Вы можете скачивать файлы