2 сезон

iTunes

MVO

1

2 сезон

iTunes

iTunes

1 сезон

RePack

30

Новинка

ВАЖНО

ИГРА 18+

pack

RePack

MK11
pack

Легкие деньги

RePack

jed

RePack

fifa19

RePack

RDR2

RePack

NEED FOR SPEED™ PAYBACK

4 сезон

9 сезон

Бесстыжие 9 сезон

Все сериалы

все сериалы на PB.wtf

RePack

FAR CRY 5

Anonymous, доброе утро, мы не успеваем собрать деньги на оплату серверов за декабрь и январь, помогите нам пожалуйста в это трудное время. В качестве благодарности мы отключим Вам всю рекламу на сайте (укажите свой ник в строку Ваше имя)!

×
  
Magnet ссылка

Мир дикого запада / Westworld / Сезон: 2 / Серии: 1-10 из 10 (Джонатан Нолан, Джонни Кэмпбелл, Ричард Дж. Льюис) [2018, фантастика, триллер, вестерн, WEBRip 1080p] [MVO] (HDRezka Studio) pb.wtf

Мир дикого запада через торрент pb.wtf

Размер: 58.73 GB | Добавлен: 11 мес. назад | Торрент скачан:105 раз
Скачать  

13-02-2020 07:21 Мир дикого запада Скачать торрент  



═╬ Мир Дикого запада / Westworld ╬═

Информация о фильме

✦ Год выхода: 2018
✦ Жанр: фантастика, триллер, вестерн
✦ Выпушено: США, Bad Robot, Jerry Weintraub Productions, Kilter Films, Warner Bros. Television
✦ Продолжительность: ~ 01:00:00 серия
✦ Перевод: Профессиональный (многоголосый, закадровый) *HDRezka Studio*
✦ Субтитры: русские (forced)

✦ Режиссер: Джонатан Нолан, Джонни Кэмпбелл, Ричард Дж. Льюис
✦ Сценарий: Майкл Крайтон, Джонатан Нолан, Лиза Джой

✦ В ролях: Энтони Хопкинс, Эд Харрис, Эван Рэйчел Вуд, Джеймс Марсден, Тэнди Ньютон, Джеффри Райт, Тесса Томпсон, Джимми Симпсон, Родриго Санторо, Шеннон Мари Вудворд

Описание фильма
В футуристическом парке развлечений андроиды на фоне для исторических декораций становятся рабами людей, выполняя рутинные задания, пока в один момент сбой в программе не превращает их в опасных убийц.



Информация о файле

✦ Качество: WEBRip 1080p
✦ Формат: MKV
✦ Видео: 1920x1080(16:9), 23.976 fps, MPEG-4 AVC ~11.6 Mbps
✦ Аудио Rus: 48 kHz, AC3 Dolby Digital, 2 ch, ~192.00 kbps
General
Unique ID : 335452158832874677038287747715680966651 (0xFC5DBC5ACDCCCEF9F8DF175B9A1017FB)
Complete name : F:\Westworld.2018.S02.1080p\Westworld.S02E01.WEBRip.1080p.rus.2.0.HDREZKA.STUDIO.mkv
Format : Matroska
Format version : Version 4 / Version 2
File size : 5.94 GiB
Duration : 1h 10mn
Overall bit rate mode : Variable
Overall bit rate : 12.1 Mbps
Encoded date : UTC 2019-04-18 12:30:35
Writing application : mkvmerge v28.2.0 ('The Awakening') 64-bit
Writing library : libebml v1.3.6 + libmatroska v1.4.9

Video
ID : 1
Format : AVC
Format/Info : Advanced Video Codec
Format profile : High@L4.1
Format settings, CABAC : Yes
Format settings, ReFrames : 1 frame
Codec ID : V_MPEG4/ISO/AVC
Duration : 1h 10mn
Bit rate mode : Variable
Bit rate : 11.6 Mbps
Maximum bit rate : 2 000 Kbps
Width : 1 920 pixels
Height : 1 080 pixels
Display aspect ratio : 16:9
Frame rate mode : Constant
Frame rate : 23.976 fps
Color space : YUV
Chroma subsampling : 4:2:0
Bit depth : 8 bits
Scan type : Progressive
Bits/(Pixel*Frame) : 0.234
Stream size : 5.73 GiB (96%)
Default : Yes
Forced : No

Audio
ID : 2
Format : AC-3
Format/Info : Audio Coding 3
Mode extension : CM (complete main)
Format settings, Endianness : Big
Codec ID : A_AC3
Duration : 1h 10mn
Bit rate mode : Constant
Bit rate : 192 Kbps
Channel(s) : 2 channels
Channel positions : Front: L R
Sampling rate : 48.0 KHz
Compression mode : Lossy
Stream size : 96.8 MiB (2%)
Language : Russian
Default : Yes
Forced : No
скриншот  скриншот  скриншот  
pb.wtf



Скачать Мир дикого запада через торрент http://i83.fastpic.ru/big/2016/1003/08/914cd0e7231121f5cf0bd7ba656b6408.jpg Скачать фильм Мир дикого запада через торрент бесплантно в хорошем качестве Описание фильма ═В футуристическом парке развлечений андроиды на фоне для исторических декораций становятся рабами людей, выполняя рутинные ... 10 10 4
Info! Золотая раздача, скачанное не засчитывается.
Торрент: Зарегистрирован [2020-02-13 07:21] · скачан: 105 раз
Статус: √ проверено
Размер: 58.73 GB
Как cкачать? Как скачать Мир дикого запада через торрент | UTorrent

% Раздел Тема Автор DL S | L
Зарубежные сериалы [ 51.22 GB ] Мир Дикого Запада / Westworld / Сезон: 2 / Серии: 1-10 из 10 [2018 BDRip-HEVC 1080p] Кравец-Рекордз AlexFilm NewStudio RealOldGamer Скачать
3 | 0
Зарубежные сериалы [ 19.86 GB ] Мир Дикого запада / Westworld / Сезон: 2 / Серии: 1-10 из 10 [2018 WEBRip 720p] MVO [Good People] bober100 Скачать
1 | 0
Зарубежные сериалы [ 7.77 GB ] Мир Дикого запада / Westworld / Сезон: 2 / Серии: 1-10 из 10 [2018 WEB-DLRip] MVO [Good People] bober100 Скачать
1 | 0
Зарубежные сериалы [ 197.84 GB ] Мир Дикого запада / Westworld / Сезон: 2 / Серии: 1-10 из 10 [2018 UHD BDRemux 2160p] DUB [Amedia] sheker187 Скачать
3 | 0
Зарубежные сериалы [ 19.44 GB ] Мир дикого запада / Westworld / Сезон: 2 / Серии: 1-10 из 10 [2018 WEB-DL 720p] [MVO] killermax2013 Скачать
1 | 0
Зарубежные сериалы [ 7.7 GB ] Мир дикого запада / Westworld / Сезон: 2 / Серии: 1-10 из 10 [2018 WEB-DLRip] [MVO] killermax2013 Скачать
1 | 0
Зарубежные сериалы [ 8.16 GB ] Мир дикого запада / Westworld / Сезон: 2 / Серии: 1-10 из 10 [2018 WEB-DLRip] DUB [Amedia] bober100 Скачать
2 | 0

28-11-2019 20:33  

Отключить всю рекламу на сайте

    Дорогой пользователь! Огромная просьба, поблагодарите релизера, оцените раздачу и оставьте свои комментарий, если Вы скачали Мир дикого запада через торрент бесплатно! Внесите свою лепту в развитие PiratBit!
    Комментировать посты могут только пользователи прошедшие не сложную регистрацию
    Показать сообщения:    

    Мир дикого запада через торрент
    Скачать бесплатно Мир дикого запада
    Мир дикого запада скачать торрент
    Мир дикого запада смотреть онлайн
    Cкачать фильм Мир дикого запада бесплатно
    Мир дикого запада скачать торрент в хорошем качестве
    Мир дикого запада смотреть онлайн бесплатно в хорошем качестве


    Вы не можете начинать темы
    Вы не можете отвечать на сообщения
    Вы не можете редактировать свои сообщения
    Вы не можете удалять свои сообщения
    Вы не можете голосовать в опросах
    Вы не можете прикреплять файлы к сообщениям
    Вы можете скачивать файлы