Ссылка на приватное зеркало нашего сайта всего за 1$. Внимание количество ограничено!!!

2 сезон

iTunes

1 сезон

1

iTunes

iTunes

iTunes

1 сезон

RePack

30

ИГРА 18+

pack

ВАЖНО

!!Акция!!

Alien_RageХит недели

RePack

MK11
pack

Забери бонус

RePack

jed

!!Акция!!

Alien_Rage

RePack

fifa19

RePack

Assassins Creed: Odyssey

RePack

NEED FOR SPEED™ PAYBACK

4 сезон

9 сезон

Бесстыжие 9 сезон

Все сериалы

все сериалы на PB.wtf

RePack

FAR CRY 5
  

Отец солдата (Резо Чхеидзе) [1964, СССР, драма, военный, HDTVRip-HEVC от AVP Studio] pb.wtf

Отец солдата через торрент pb.wtf

Раздают: 4 [ 0 KB/s ]
Размер: 2.18 GB | Добавлен: 8 мес. назад | Торрент скачан:22 раза
Скачать  

13-02-2020 09:56 Отец солдата Скачать торрент  

Отец солдата
Страна: СССР
Производство: Грузия-фильм
Жанр: драма, военный
Год выпуска: 1964
Продолжительность: 01:26:36

Перевод: не требуется
Оригинальная аудиодорожка: русский
Cубтитры: нет

Режиссер: Резо Чхеидзе


Серго Закариадзе, Владимир Привальцев, Александр Назаров, Александр Лебедев, Владимир Колокольцев, Ю. Дроздов, Иван Косых, Виктор Косых, Виктор Уральский, Кетеван (Кето) Бочоришвили, Владимир Пицек, Пётр Любешкин, Татьяна Решетникова, Николай Бармин...
Об актёрах подробней


Противоестественность войны для человека — труженика, созидателя — показана на примере судьбы старого крестьянина-виноградаря из Грузии. Георгий Махарашвили едет повидаться с сыном, который ранен и находится в госпитале. Но пока отец добирается до места назначения, сын снова отправляется на фронт. Однако Георгий уже не может вернуться в родную деревню. Он вместе с советской армией проходит весь ее путь — путь до Берлина, до Победы над фашизмом.

Исходник: HDTV 1080i
Тип релиза: HDTVRip-HEVC 720p
Контейнер: MKV

Видео: 1280x720->868 (3:2), 25,000 кадров/сек, H265 ~ 3473 kbps avg, 0.151 bit/pixel
Аудио: 48 kHz, AAC LC 2.0, 128 kbps

Раздача от:
Общее
Полное имя : Otec.soldata.1964.HDTVRip-HEVC 720p_[New-team]_by_AVP_Studio.mkv
Формат : Matroska
Версия формата : Version 4
Размер файла : 2,18 Гбайт
Продолжительность : 1 ч. 26 м.
Общий поток : 3603 Кбит/сек
Дата кодирования : UTC 2020-02-11 09:52:39
Программа кодирования : mkvmerge v43.0.0 ('The Quartermaster') 64-bit
Библиотека кодирования : libebml v1.3.10 + libmatroska v1.5.2

Видео
Идентификатор : 1
Формат : HEVC
Формат/Информация : High Efficiency Video Coding
Профиль формата : Main@L3.1@Main
Идентификатор кодека : V_MPEGH/ISO/HEVC
Продолжительность : 1 ч. 26 м.
Битрейт : 3473 Кбит/сек
Ширина : 1280 пикселей
Высота : 720 пикселей
Соотношение сторон : 3:2
Соотношение сторон в оригинале : 3:2
Режим частоты кадров : Постоянный
Частота кадров : 25,000 кадров/сек
Цветовое пространство : YUV
Субдискретизация насыщенности : 4:2:0
Битовая глубина : 8 бит
Бит/(Пиксели*Кадры) : 0.151
Размер потока : 2,10 Гбайт (96%)
Язык : Russian
Default : Да
Forced : Нет

Аудио
Идентификатор : 2
Формат : AAC LC
Формат/Информация : Advanced Audio Codec Low Complexity
Идентификатор кодека : A_AAC-2
Продолжительность : 1 ч. 26 м.
Битрейт : 128 Кбит/сек
Каналы : 2 канала
ChannelLayout : L R
Частота : 48,0 КГц
Частота кадров : 46,875 кадров/сек (1024 SPF)
Метод сжатия : С потерями
Задержка видео : 9 мс.
Размер потока : 79,3 Мбайт (4%)
Язык : Russian
Default : Да
Forced : Нет
pb.wtf



Скачать Отец солдата через торрент http://c.radikal.ru/c40/2002/bc/e061e5b10d98.png Скачать фильм Отец солдата через торрент бесплантно в хорошем качестве Год выпуска: 1964Продолжительность: 01:26:36Перевод: не требуетсяОригинальная аудиодорожка: русскийCубтитры: нетРежиссер: Резо ... 10 10 2
Info! Золотая раздача, скачанное не засчитывается.
Торрент: Зарегистрирован [2020-02-13 09:56] · скачан: 22 раз
Статус: √ проверено
Размер: 2.18 GB
Как cкачать? Как скачать Отец солдата через торрент | qTorrent

% Раздел Тема Автор DL S | L
Кино СССР [ 1.46 GB ] Отец солдата [1964 СССР военный HDTVRip-AVC от AVP Studio] AVP Studio Скачать
3 | 0
Наши фильмы (HD, WEB-DL 720p, 1080p) [ 3.05 GB ] Отец солдата [1965 военный HDTVRip 720p] Цветная версия -Lexx- Скачать
1 | 0
Кино СССР [ 1.46 GB ] Отец солдата [1964 военный HDTVRip] Цветная версия mihis Скачать
1 | 0
Кино СССР [ 4.36 GB ] Отец солдата [1964 военный DVD5] Ruvest Скачать
1 | 0
Кино СССР [ 1.7 GB ] Отец солдата / Jariskatsis mama [1964 военный DVDRip-AVC] feldeger Скачать
1 | 0

28-11-2019 20:33  

Отключить всю рекламу на сайте

13-02-2020 12:01 Отец солдата Скачать торрент  

Шикарный фильмpb.wtf



13-02-2020 15:29 Отец солдата Скачать торрент  

Легендарный фильмpb.wtf



    Дорогой пользователь! Огромная просьба, поблагодарите релизера, оцените раздачу и оставьте свои комментарий, если Вы скачали Отец солдата через торрент бесплатно! Внесите свою лепту в развитие PiratBit!
    Комментировать посты могут только пользователи прошедшие не сложную регистрацию
    Показать сообщения:    

    Отец солдата через торрент
    Скачать бесплатно Отец солдата
    Отец солдата скачать торрент
    Отец солдата смотреть онлайн
    Cкачать фильм Отец солдата бесплатно
    Отец солдата скачать торрент в хорошем качестве
    Отец солдата смотреть онлайн бесплатно в хорошем качестве


    Вы не можете начинать темы
    Вы не можете отвечать на сообщения
    Вы не можете редактировать свои сообщения
    Вы не можете удалять свои сообщения
    Вы не можете голосовать в опросах
    Вы не можете прикреплять файлы к сообщениям
    Вы можете скачивать файлы