Ссылка на приватное зеркало всего за 1$. Внимание количество ограничено!!!

iTunes

1+1

iTunes

мы

MV0

1

WEB-DLRip

Джокер

Пифагор

Ведьмак / The Witcher сериал

iTunes

ПШазам

iTunes

Оно 2

iTunes

30
pack

Вам бонус

ВАЖНО

!!Акция!!

Alien_RageХит недели

RePack

Resident Evil 21

ИГРА 18+

pack

RePack

jed

!!Акция!!

Alien_Rage

RePack

fifa19

RePack

Assassins Creed: Odyssey

RePack

NEED FOR SPEED™ PAYBACK

4 сезон

9 сезон

Бесстыжие 9 сезон

Все сериалы

все сериалы на PB.wtf

RePack

FAR CRY 5
  

Последняя пуля / Disturbing the Peace (Йорк Шеклтон) [2020 г., боевик, HDRip, Дубляж "iTunes"] pb.wtf

Последняя пуля через торрент pb.wtf

Раздают: 6 [ 0 KB/s ] Качают: 1 [ 0 KB/s ]
Размер: 708 MB | Добавлен: 7 д. назад | Торрент скачан:60 раз
Скачать  

13-02-2020 18:25 Последняя пуля Скачать торрент  

Последняя пуля / Disturbing the Peace
Год выпуска: 2020
Страна: США / Grodnik /Aloe Productions, The Wonderfilm Media Corporation, Aloe Entertainment
Жанр: боевик
Продолжительность: 01:30:53
Перевод: Дубляж (iTunes)

Режиссер: Йорк Шеклтон

rating

В ролях: Гай Пирс, Девон Сава, Барби Бланк, Келли Грейсон, Брэнском Ричмонд, Дэн Сауфуорф, Эль Е. Уоллес, Дуэйн Камерон, Майкл Беллисарио, Теренс Дж. Ротоло

Описание: Тихий городок оказывается захвачен бандой дерзких и жестоких преступников. Их план - обрубить все каналы связи и держать жителей в заложниках, чтобы ограбить проезжающий через город инкассаторский грузовик с крупным кушем. Им плевать сколько мирных людей погибнет ради их наживы, однако им не стоило недооценивать опытного местного шерифа, который даже в одиночку готов сражаться за свой город до последней капли крови и до последней пули.

Качество: HDRip
Формат: AVI
Видео кодек: DivX
Аудио кодек: MP3
Видео: 640x320 (2.00:1), 23.976 fps, DivX Codec 4.x ~951 kbps avg, 0.19 bit/pixel
Аудио: 48 kHz, MPEG Layer 3, 2 ch, ~128.00 kbps avg
скриншот   скриншот   скриншот   скриншот   скриншот   скриншот   скриншот   скриншот  

Общее
Полное имя : F:\ФИЛЬМЫ\Последняя пуля.2020.D.HDRip.avi
Формат : AVI
Формат/Информация : Audio Video Interleave
Размер файла : 708 Мбайт
Продолжительность : 1 ч. 30 м.
Общий поток : 1089 Кбит/сек
Программа кодирования : VirtualDubMod 1.5.10.3 | www.virtualdub-fr.org || (build 2550/release)
Библиотека кодирования : VirtualDubMod build 2550/release

Видео
Идентификатор : 0
Формат : MPEG-4 Visual
Профиль формата : Advanced Simple@L5
Настройки формата : BVOP3 / GMC3 / QPel
Параметр BVOP формата : 3
Параметр QPel формата : Да
Параметр GMC формата : 3 точки перехода
Параметр матрицы формата : Default (MPEG)
Идентификатор кодека : DIVX
Идентификатор кодека/Информация : Project Mayo
Идентификатор кодека/Подсказка : DivX 4
Продолжительность : 1 ч. 30 м.
Битрейт : 952 Кбит/сек
Ширина : 640 пикселей
Высота : 320 пикселей
Соотношение сторон : 2,000
Частота кадров : 23,976 (24000/1001) кадра/сек
Цветовое пространство : YUV
Субдискретизация насыщенности : 4:2:0
Битовая глубина : 8 бит
Тип развёртки : Прогрессивная
Метод сжатия : С потерями
Бит/(Пиксели*Кадры) : 0.194
Размер потока : 619 Мбайт (87%)
Библиотека кодирования : XviD 1.2.1 (UTC 2008-12-04)

Аудио
Идентификатор : 1
Формат : MPEG Audio
Версия формата : Version 1
Профиль формата : Layer 3
Настройки формата : Joint stereo
Идентификатор кодека : 55
Идентификатор кодека/Подсказка : MP3
Продолжительность : 1 ч. 30 м.
Вид битрейта : Постоянный
Битрейт : 128 Кбит/сек
Каналы : 2 канала
Частота : 48,0 КГц
Частота кадров : 41,667 кадра/сек (1152 SPF)
Метод сжатия : С потерями
Размер потока : 83,2 Мбайт (12%)
Выравнивание : Соединение по промежуткам
Продолжительность промежутка : 42 мс. (1,00 видеокадр)
Время предзагрузки промежутка : 504 мс.
Библиотека кодирования : LAME3.99r
Настройки программы : -m j -V 4 -q 2 -lowpass 17 -b 128

pb.wtf



Скачать Последняя пуля через торрент http://pic1.kartinco.top/images/12/4lwcv.jpg Скачать фильм Последняя пуля через торрент бесплантно в хорошем качестве Описание: Тихий городок оказывается захвачен бандой дерзких и жестоких преступников. Их план - обрубить все каналы связи и держать жителей ... 3 10 2
Торрент: Зарегистрирован [2020-02-13 18:25] · скачан: 60 раз
Статус: √ проверено
Размер: 708 MB
Как cкачать? Как скачать Последняя пуля через торрент | qTorrent

% Раздел Тема Автор DL S | L
Фильмы [HD 720p, 1080p] (Хороший звук DUB, MVO) [ 5.03 GB ] Последняя пуля / Disturbing the Peace [2020 BDRip 720p] bober100 Скачать
4 | 0
Фильмы (Blu-ray, BD-Remux, HDDVD) [ 20.47 GB ] Последняя пуля / Disturbing the Peace [2020 BD Remux 1080p] bober100 Скачать
1 | 1
Фильмы (WEB-DL 720p, 1080p) [ 3.09 GB ] Последняя пуля / Disturbing the Peace [2020 WEB-DL 720p] bober100 Скачать
2 | 0
Фильмы (WEB-DL 720p, 1080p) [ 3.72 GB ] Последняя пуля / Disturbing the Peace [2020 WEB-DL 1080p] bober100 Скачать
8 | 0
Фильмы 2019-2020 [DVDrip, WEB-DLRip, HDrip] (DUB, MVO) [ 747 MB ] Последняя пуля / Disturbing the Peace [2020 WEB-DLRip] bober100 Скачать
4 | 0
Фильмы 2019-2020 [DVDrip, WEB-DLRip, HDrip] (DUB, MVO) [ 1.46 GB ] Последняя пуля / Disturbing the Peace [2020 BDRip] bober100 Скачать
13 | 0

28-11-2019 20:33  

Отключить всю рекламу на сайте

    Дорогой пользователь! Огромная просьба, поблагодарите релизера, оцените раздачу и оставьте свои комментарий, если Вы скачали Последняя пуля через торрент бесплатно! Внесите свою лепту в развитие PiratBit!
    Комментировать посты могут только пользователи прошедшие не сложную регистрацию
    Показать сообщения:    

    Последняя пуля через торрент
    Скачать бесплатно Последняя пуля
    Последняя пуля скачать торрент
    Последняя пуля смотреть онлайн
    Cкачать фильм Последняя пуля бесплатно
    Последняя пуля скачать торрент в хорошем качестве
    Последняя пуля смотреть онлайн бесплатно в хорошем качестве


    Вы не можете начинать темы
    Вы не можете отвечать на сообщения
    Вы не можете редактировать свои сообщения
    Вы не можете удалять свои сообщения
    Вы не можете голосовать в опросах
    Вы не можете прикреплять файлы к сообщениям
    Вы можете скачивать файлы