Ссылка на приватное зеркало всего за 1$. Внимание количество ограничено!!!

iTunes

1+1

iTunes

мы

MV0

1

WEB-DLRip

Джокер

Пифагор

Ведьмак / The Witcher сериал

iTunes

ПШазам

iTunes

Оно 2

iTunes

30
pack

Вам бонус

ВАЖНО

!!Акция!!

Alien_RageХит недели

RePack

Resident Evil 21

ИГРА 18+

pack

RePack

jed

!!Акция!!

Alien_Rage

RePack

fifa19

RePack

Assassins Creed: Odyssey

RePack

NEED FOR SPEED™ PAYBACK

4 сезон

9 сезон

Бесстыжие 9 сезон

Все сериалы

все сериалы на PB.wtf

RePack

FAR CRY 5
  

Джуманджи: Новый уровень / Jumanji: The Next Level (Джейк Кэздан) [2019, фэнтези, боевик, комедия, приключения, WEBRip 1080p] DUB [Line] pb.wtf

Джуманджи: Новый уровень через торрент pb.wtf

Раздают: 93 [ 3 MB/s ] Качают: 3 [ 2 MB/s ]
Размер: 6.13 GB | Добавлен: 6 д. назад | Торрент скачан:1126 раз
Скачать  

13-02-2020 18:41 Джуманджи: Новый уровень Скачать торрент  

Джуманджи: Новый уровень | Jumanji: The Next Level
Год выпуска: 2019
Страна: США
Жанр: фэнтези, боевик, комедия, приключения
Продолжительность: 02:03:11
Перевод: Дублированный | Онлайн-кинотеатра
Субтитры: Корейские (вшитые)

Режиссер: Джейк Кэздан

rating

В ролях: Карен Гиллан, Дуэйн Джонсон, Дэнни ДеВито, Мэдисон Айсмен, Джек Блэк, Аквафина, Эшли Скотт, Кевин Харт, Ник Джонас, Риз Дэрби

Описание: Чтобы спасти одного из приятелей, остальным приходится вернуться в игру. К их удивлению, правила Джуманджи изменились, и все идет наперекосяк. Чтобы выжить друзьям предстоит отправиться в путешествие по самым неизведанным и таинственным уголкам игры - от засушливой пустыни до заснеженных гор.

Качество: WEBRip 1080p
Формат: MKV

Видео: AVC, 6750 Kb/s, 1920x804
Аудио: Russian: AC3, 2 ch, 192 Kb/s
Аудио: English: AC3, 2 ch, 192 Kb/s
скриншот  скриншот  скриншот  скриншот  

Format: Matroska
Format version: Version 4 / Version 2
File size: 6.13 GiB
Duration: 2 h 3 min
Overall bit rate: 7 124 kb/s
Movie name: Jumanji.The.Next.Level.2019.1080p.KORSUB.HDRip.x264.AAC2.0-STUTTERSHIT
Encoded date: UTC 2020-02-14 20:39:39
Writing application: mkvmerge v8.3.0 ('Over the Horizon') 64bit
Writing library: libebml v1.3.1 + libmatroska v1.4.2
Cover: Yes
Attachments: cover_land.jpg / small_cover.jpg / small_cover_land.jpg / cover.jpg

Video
ID: 1
Format: AVC
Format/Info: Advanced Video Codec
Format profile: High@L4.1
Format settings, CABAC: Yes
Format settings, ReFrames: 4 frames
Codec ID: V_MPEG4/ISO/AVC
Duration: 2 h 3 min
Bit rate: 6 750 kb/s
Width: 1 920 pixels
Height: 804 pixels
Display aspect ratio: 2.40:1
Frame rate mode: Constant
Frame rate: 29.970 (30000/1001) FPS
Color space: YUV
Chroma subsampling: 4:2:0
Bit depth: 8 bits
Scan type: Progressive
Bits/(Pixel*Frame): 0.146
Stream size: 5.80 GiB (95%)
Title: Jumanji.The.Next.Level.2019.1080p.KORSUB.HDRip.x264.AAC2.0-STUTTERSHIT
Writing library: x264 core 152 r2851 ba24899
Encoding settings: cabac=1 / ref=3 / deblock=1:-2:-2 / analyse=0x3:0x113 / me=hex / subme=7 / psy=1 / psy_rd=1.00:0.00 / mixed_ref=1 / me_range=16 / chroma_me=1 / trellis=1 / 8x8dct=1 / cqm=0 / deadzone=21,11 / fast_pskip=1 / chroma_qp_offset=-2 / threads=18 / lookahead_threads=3 / sliced_threads=0 / nr=0 / decimate=1 / interlaced=0 / bluray_compat=0 / constrained_intra=0 / bframes=3 / b_pyramid=2 / b_adapt=1 / b_bias=0 / direct=1 / weightb=1 / open_gop=0 / weightp=2 / keyint=250 / keyint_min=25 / scenecut=40 / intra_refresh=0 / rc_lookahead=40 / rc=abr / mbtree=1 / bitrate=6750 / ratetol=1.0 / qcomp=0.60 / qpmin=0 / qpmax=69 / qpstep=4 / ip_ratio=1.40 / aq=1:1.00
Language: English
Default: Yes
Forced: No

Audio #1
ID: 2
Format: AC-3
Format/Info: Audio Coding 3
Mode extension: CM (complete main)
Format settings, Endianness: Big
Codec ID: A_AC3
Duration: 2 h 3 min
Bit rate mode: Constant
Bit rate: 192 kb/s
Channel(s): 2 channels
Channel positions: Front: L R
Sampling rate: 48.0 kHz
Frame rate: 31.250 FPS (1536 spf)
Bit depth: 16 bits
Compression mode: Lossy
Stream size: 169 MiB (3%)
Title: Line
Language: Russian
Default: Yes
Forced: No

Audio #2
ID: 3
Format: AC-3
Format/Info: Audio Coding 3
Mode extension: CM (complete main)
Format settings, Endianness: Big
Codec ID: A_AC3
Duration: 2 h 3 min
Bit rate mode: Constant
Bit rate: 192 kb/s
Channel(s): 2 channels
Channel positions: Front: L R
Sampling rate: 48.0 kHz
Frame rate: 31.250 FPS (1536 spf)
Bit depth: 16 bits
Compression mode: Lossy
Stream size: 169 MiB (3%)
Language: English
Default: No
Forced: No

pb.wtf



Скачать Джуманджи: Новый уровень через торрент https://i4.imageban.ru/out/2020/02/14/aefb3b1d953cf90e016541bcb0175d76.png Скачать фильм Джуманджи: Новый уровень через торрент бесплантно в хорошем качестве Описание: Чтобы спасти одного из приятелей, остальным приходится вернуться в игру. К их удивлению, правила Джуманджи изменились, и все идет ... 9.8 10 47
Info! Золотая раздача, скачанное не засчитывается.
Торрент: Зарегистрирован [2020-02-14 21:43] · скачан: 1 126 раз
Статус: T временная
Размер: 6.13 GB
Как cкачать? Как скачать Джуманджи: Новый уровень через торрент | qTorrent

% Раздел Тема Автор DL S | L
T Фильмы (мультфильмы) cо спонсором показа (Новинки AVI/MKV) [ 5.15 GB ] Джуманджи: Новый уровень / Jumanji: The Next Level [2019 WEBRip 720p] DUB [Line] bober100 Скачать
24 | 0
T Фильмы (мультфильмы) cо спонсором показа (Новинки AVI/MKV) [ 2.05 GB ] Джуманджи: Новый уровень / Jumanji: The Next Level [2019 WEBRip] DUB [Line] bober100 Скачать
46 | 0
T Фильмы 2019-2020 [DVDrip, WEB-DLRip, HDrip] (DUB, MVO) [ 1.46 GB ] Джуманджи: Новый уровень / Jumanji: The Next Level [2019 WEBRip] DUB [Онлайн-кинотеатра] bober100 Скачать
54 | 4
x Фильмы (мультфильмы) cо спонсором показа (Новинки AVI/MKV) [ 3.24 GB ] Джуманджи: Новый уровень / Jumanji: The Next Level [2019 г TS 720p] killermax2013 Скачать
9 | 0
x Фильмы (мультфильмы) cо спонсором показа (Новинки AVI/MKV) [ 1.37 GB ] Джуманджи: Новый уровень / Jumanji: The Next Level [2019 г TS] killermax2013 Скачать
2 | 0

28-11-2019 20:33  

Отключить всю рекламу на сайте

16-02-2020 17:00 Джуманджи: Новый уровень Скачать торрент  

на телевизоре LG формат звука не поддерживается ((((( pb.wtf



17-02-2020 04:05 Джуманджи: Новый уровень Скачать торрент  

pavel197705 писал(а):

на телевизоре LG формат звука не поддерживается (((((

я смотрел на LG. Звук был. А фильм - УГ. Не тратьте время на этот коммерческий продукт для десятилетних детей.pb.wtf



    Дорогой пользователь! Огромная просьба, поблагодарите релизера, оцените раздачу и оставьте свои комментарий, если Вы скачали Джуманджи: Новый уровень через торрент бесплатно! Внесите свою лепту в развитие PiratBit!
    Комментировать посты могут только пользователи прошедшие не сложную регистрацию
    Показать сообщения:    

    Джуманджи: Новый уровень через торрент
    Скачать бесплатно Джуманджи: Новый уровень
    Джуманджи: Новый уровень скачать торрент
    Джуманджи: Новый уровень смотреть онлайн
    Cкачать фильм Джуманджи: Новый уровень бесплатно
    Джуманджи: Новый уровень скачать торрент в хорошем качестве
    Джуманджи: Новый уровень смотреть онлайн бесплатно в хорошем качестве


    Вы не можете начинать темы
    Вы не можете отвечать на сообщения
    Вы не можете редактировать свои сообщения
    Вы не можете удалять свои сообщения
    Вы не можете голосовать в опросах
    Вы не можете прикреплять файлы к сообщениям
    Вы можете скачивать файлы