Ссылка на приватное зеркало всего за 1$. Внимание количество ограничено!!!

iTunes

1+1

iTunes

мы

MV0

1

WEB-DLRip

Джокер

Пифагор

Ведьмак / The Witcher сериал

iTunes

ПШазам

iTunes

Оно 2

iTunes

30
pack

Вам бонус

ВАЖНО

!!Акция!!

Alien_RageХит недели

RePack

Resident Evil 21

ИГРА 18+

pack

RePack

jed

!!Акция!!

Alien_Rage

RePack

fifa19

RePack

Assassins Creed: Odyssey

RePack

NEED FOR SPEED™ PAYBACK

4 сезон

9 сезон

Бесстыжие 9 сезон

Все сериалы

все сериалы на PB.wtf

RePack

FAR CRY 5
  

Последняя пуля / Disturbing the Peace (Йорк Шеклтон) [2020, Боевик, BDRip 720p] DUB [iTunes] pb.wtf

Последняя пуля через торрент pb.wtf

Раздают: 5 [ 328 KB/s ]
Размер: 5.03 GB | Добавлен: 5 д. назад | Торрент скачан:64 раза
Скачать  

14-02-2020 07:59 Последняя пуля Скачать торрент  

Последняя пуля | Disturbing the Peace Год выпуска: 2020
Страна: США
Студия: Aloe Entertainment, Grodnik /Aloe Productions, Media Finance Capital, Wonderfilm Media
Жанр: Боевик
Продолжительность: 01:30:48
Перевод: Дублированный | iTunes
Субтитры: Английские

Режиссер: Йорк Шеклтон

rating

В ролях: Гай Пирс, Девон Сава, Майкл Беллисарио, Барби Бланк, Дуэйн Камерон, Джейк Гродник, Теренс Дж. Ротоло, Майкл Сироу, Джон Льюис, Келли Грейсон

Описание: Тихий городок оказывается захвачен бандой дерзких и жестоких преступников. Их план - обрубить все каналы связи и держать жителей в заложниках, чтобы ограбить проезжающий через город инкассаторский грузовик с крупным кушем. Им плевать сколько мирных людей погибнет ради их наживы, однако им не стоило недооценивать опытного местного шерифа, который даже в одиночку готов сражаться за свой город до последней капли крови и до последней пули.

Качество: BDRip 720p
Формат: MKV

Видео: MPEG-4 AVC, 1280x642, 6029 Kbit/s, 23.976 fps
Аудио #01: 48 kHz, AC3, 5.1, 384 Kbps | iTunes | RUS |
Аудио #02: 48 kHz, DTS, 5.1, 1509 Kbps | Оригинал | ENG |
скриншот  скриншот  скриншот  скриншот  

x264
x264 [info]: profile Progressive High, level 4.1, 4:2:0, 8-bit
x264 [info]: frame I:1342 Avg QP:16.01 size:108980
x264 [info]: frame P:25122 Avg QP:17.21 size: 56239
x264 [info]: frame B:104279 Avg QP:18.42 size: 24460
x264 [info]: consecutive B-frames: 1.8% 1.9% 5.6% 14.2% 15.2% 41.2% 6.2% 1.2% 2.3% 0.9% 1.2% 8.4%
x264 [info]: kb/s:6029.21
encoded 130743 frames, 1.82 fps, 6029.21 kb/s
Общее
Формат : Matroska
Версия формата : Version 4
Размер файла : 5,03 Гбайт
Продолжительность : 1 ч. 30 м.
Общий поток : 7925 Кбит/сек
Название фильма : Последняя пуля / Disturbing the Peace / 2020 - Rutracker
Дата кодирования : UTC 2020-02-14 06:49:39
Программа кодирования : mkvmerge v43.0.0 ('The Quartermaster') 64-bit
Библиотека кодирования : libebml v1.3.10 + libmatroska v1.5.2
Обложка : Yes
Attachments : cover.jpg
Видео
Идентификатор : 1
Формат : AVC
Формат/Информация : Advanced Video Codec
Профиль формата : High@L4.1
Настройки формата : CABAC / 9 Ref Frames
Параметр CABAC формата : Да
Параметр RefFrames формата : 9 кадров
Идентификатор кодека : V_MPEG4/ISO/AVC
Продолжительность : 1 ч. 30 м.
Битрейт : 6029 Кбит/сек
Ширина : 1280 пикселей
Высота : 642 пикселя
Соотношение сторон : 1,994
Режим частоты кадров : Постоянный
Частота кадров : 23,976 (24000/1001) кадра/сек
Цветовое пространство : YUV
Субдискретизация насыщенности : 4:2:0
Битовая глубина : 8 бит
Тип развёртки : Прогрессивная
Бит/(Пиксели*Кадры) : 0.306
Размер потока : 3,83 Гбайт (76%)
Заголовок : Последняя пуля / Disturbing the Peace / 2020 - ripped by <<LION1234>>
Библиотека кодирования : x264 core 157 r2969 d4099dd
Настройки программы : cabac=1 / ref=9 / deblock=1:-3:-3 / analyse=0x3:0x113 / me=umh / subme=10 / psy=1 / psy_rd=1.00:0.00 / mixed_ref=1 / me_range=32 / chroma_me=1 / trellis=2 / 8x8dct=1 / cqm=0 / deadzone=21,11 / fast_pskip=0 / chroma_qp_offset=-2 / threads=6 / lookahead_threads=1 / sliced_threads=0 / nr=0 / decimate=0 / interlaced=0 / bluray_compat=0 / constrained_intra=0 / bframes=11 / b_pyramid=2 / b_adapt=2 / b_bias=0 / direct=3 / weightb=1 / open_gop=0 / weightp=2 / keyint=240 / keyint_min=23 / scenecut=40 / intra_refresh=0 / rc_lookahead=40 / rc=crf / mbtree=0 / crf=17.9 / qcomp=0.64 / qpmin=0 / qpmax=69 / qpstep=4 / vbv_maxrate=62500 / vbv_bufsize=78125 / crf_max=0.0 / nal_hrd=none / filler=0 / ip_ratio=1.30 / pb_ratio=1.20 / aq=3:0.90
Default : Да
Forced : Нет
Аудио #1
Идентификатор : 2
Формат : AC-3
Формат/Информация : Audio Coding 3
Коммерческое название : Dolby Digital
Идентификатор кодека : A_AC3
Продолжительность : 1 ч. 30 м.
Вид битрейта : Постоянный
Битрейт : 384 Кбит/сек
Каналы : 6 каналов
ChannelLayout : L R C LFE Ls Rs
Частота : 48,0 КГц
Частота кадров : 31,250 кадров/сек (1536 SPF)
Метод сжатия : С потерями
Размер потока : 250 Мбайт (5%)
Заголовок : дубляж iTunes
Язык : Russian
ServiceKind/String : Complete Main
Default : Да
Forced : Нет
Аудио #2
Идентификатор : 3
Формат : DTS
Формат/Информация : Digital Theater Systems
Идентификатор кодека : A_DTS
Продолжительность : 1 ч. 30 м.
Вид битрейта : Постоянный
Битрейт : 1509 Кбит/сек
Каналы : 6 каналов
ChannelLayout : C L R Ls Rs LFE
Частота : 48,0 КГц
Частота кадров : 93,750 кадра/сек (512 SPF)
Битовая глубина : 16 бит
Метод сжатия : С потерями
Размер потока : 981 Мбайт (19%)
Заголовок : английский
Язык : English
Default : Нет
Forced : Нет
Текст
Идентификатор : 4
Формат : UTF-8
Идентификатор кодека : S_TEXT/UTF8
Идентификатор кодека/Информация : UTF-8 Plain Text
Продолжительность : 1 ч. 23 м.
Битрейт : 33 бит/сек
ElementCount : 746
Размер потока : 20,3 Кбайт (0%)
Заголовок : английские
Язык : English
Default : Нет
Forced : Нет
Меню
00:00:00.000 : :Chapter 01
00:03:15.236 : :Chapter 02
00:07:39.792 : :Chapter 03
00:14:50.681 : :Chapter 04
00:21:52.894 : :Chapter 05
00:27:00.076 : :Chapter 06
00:31:14.873 : :Chapter 07
00:36:45.077 : :Chapter 08
00:40:24.046 : :Chapter 09
00:46:09.016 : :Chapter 10
00:54:14.960 : :Chapter 11
01:00:43.306 : :Chapter 12
01:05:21.751 : :Chapter 13
01:13:20.521 : :Chapter 14
01:20:51.763 : :Chapter 15
01:22:27.734 : :Chapter 16

pb.wtf



Скачать Последняя пуля через торрент https://d.radikal.ru/d07/2001/06/3a081d3d77bf.png Скачать фильм Последняя пуля через торрент бесплантно в хорошем качестве Описание: Тихий городок оказывается захвачен бандой дерзких и жестоких преступников. Их план - обрубить все каналы связи и держать жителей ... 8.2 10 5
Торрент: Зарегистрирован [2020-02-14 07:59] · скачан: 64 раз
Статус: √ проверено
Размер: 5.03 GB
Как cкачать? Как скачать Последняя пуля через торрент | qTorrent

% Раздел Тема Автор DL S | L
Фильмы (Blu-ray, BD-Remux, HDDVD) [ 20.47 GB ] Последняя пуля / Disturbing the Peace [2020 BD Remux 1080p] bober100 Скачать
2 | 0
Фильмы (WEB-DL 720p, 1080p) [ 3.09 GB ] Последняя пуля / Disturbing the Peace [2020 WEB-DL 720p] bober100 Скачать
6 | 0
Фильмы 2019-2020 [DVDrip, WEB-DLRip, HDrip] (DUB, MVO) [ 708 MB ] Последняя пуля / Disturbing the Peace [2020 HDRip ""] coc900 Скачать
10 | 0
Фильмы (WEB-DL 720p, 1080p) [ 3.72 GB ] Последняя пуля / Disturbing the Peace [2020 WEB-DL 1080p] bober100 Скачать
7 | 0
Фильмы 2019-2020 [DVDrip, WEB-DLRip, HDrip] (DUB, MVO) [ 747 MB ] Последняя пуля / Disturbing the Peace [2020 WEB-DLRip] bober100 Скачать
6 | 0
Фильмы 2019-2020 [DVDrip, WEB-DLRip, HDrip] (DUB, MVO) [ 1.46 GB ] Последняя пуля / Disturbing the Peace [2020 BDRip] bober100 Скачать
15 | 1

28-11-2019 20:33  

Отключить всю рекламу на сайте

    Дорогой пользователь! Огромная просьба, поблагодарите релизера, оцените раздачу и оставьте свои комментарий, если Вы скачали Последняя пуля через торрент бесплатно! Внесите свою лепту в развитие PiratBit!
    Комментировать посты могут только пользователи прошедшие не сложную регистрацию
    Показать сообщения:    

    Последняя пуля через торрент
    Скачать бесплатно Последняя пуля
    Последняя пуля скачать торрент
    Последняя пуля смотреть онлайн
    Cкачать фильм Последняя пуля бесплатно
    Последняя пуля скачать торрент в хорошем качестве
    Последняя пуля смотреть онлайн бесплатно в хорошем качестве


    Вы не можете начинать темы
    Вы не можете отвечать на сообщения
    Вы не можете редактировать свои сообщения
    Вы не можете удалять свои сообщения
    Вы не можете голосовать в опросах
    Вы не можете прикреплять файлы к сообщениям
    Вы можете скачивать файлы