Ссылка на приватное зеркало всего за 1$. Внимание количество ограничено!!!

iTunes

1+1

iTunes

мы

MV0

1

WEB-DLRip

Джокер

Пифагор

Ведьмак / The Witcher сериал

iTunes

ПШазам

iTunes

Оно 2

iTunes

30
pack

Вам бонус

ВАЖНО

!!Акция!!

Alien_RageХит недели

RePack

Resident Evil 21

ИГРА 18+

pack

RePack

jed

!!Акция!!

Alien_Rage

RePack

fifa19

RePack

Assassins Creed: Odyssey

RePack

NEED FOR SPEED™ PAYBACK

4 сезон

9 сезон

Бесстыжие 9 сезон

Все сериалы

все сериалы на PB.wtf

RePack

FAR CRY 5
  

Достать ножи / Knives Out (Райан Джонсон) [2019, детектив, комедия, драма, криминал, BDRip 720p] DUB [iTunes] +MVO [HDrezka Studio] +AVO [М. Яроцкий (Kyberpunk)] pb.wtf

Достать ножи через торрент pb.wtf

Раздают: 38 [ 12 MB/s ] Качают: 8 [ 722 KB/s ]
Размер: 7.84 GB | Добавлен: 1 д. 18 ч. назад | Торрент скачан:117 раз
Скачать  

14-02-2020 11:34 Достать ножи Скачать торрент  

Достать ножи | Knives Out
Год выпуска: 2019
Страна: США
Выпущено: Lionsgate, Media Rights Capital (MRC), T-Street See
Жанр: детектив, комедия, драма, криминал
Продолжительность: 02:10:13
Перевод:
#1: Дублированный | iTunes
#2: Профессиональный (многоголосый закадровый) | HDRezka Studio
#3: Авторский | Яроцкий (Kyberpunk)
Субтитры: Русские (Forced, full), английские

Режиссер: Райан Джонсон

rating

В ролях:

Дэниэл Крэйг (Benoit Blanc), Ана де Армас (Marta Cabrera), Крис Эванс (Ransom Drysdale), Джейми Ли Кёртис (Linda Drysdale), Майкл Шеннон (Walt Thrombey), Дон Джонсон (Richard Drysdale), Тони Коллетт (Joni Thrombey), Лакит Стэнфилд (Lieutenant Elliott), Кристофер Пламмер (Harlan Thrombey), Кэтрин Лэнгфорд (Meg Thrombey), Джейден Мартелл (Jacob Thrombey), Рики Линдхоум (Donna Thrombey)
Описание: События фильма «Достать ножи» начинают свое развитие после юбилея востребованного автора, работающего в жанре криминального романа. Являясь популярным писателем, он привлекает к своей персоне много внимания. Но чаще всего автор получает восторженные отзывы от читателей и критиков. Несмотря на это, у него есть враги. Сразу же после юбилея тело писателя обнаруживают случайные прохожие. Они вызывают полицейских на место преступления. Вскоре после этого начинается официальное расследование, которое поручают очень дотошному, но харизматичному детективу. Он сразу же с головой погружается в изучение материалов дела и приходит к выводу, что оно может быть одним из самых сложных в его непростой карьере. Ему нужно найти способ разорвать сотканную паутину из лжи и хитрых уловок, которой его пытаются опутать члены семейства убитого писателя. Впереди главного героя ждет множество скелетов в шкафах и мрачных тайн.

Качество: BDRip 720p
Формат: MKV

Видео: MPEG-4 AVC, 1280x692, 5000 Кbit/s, 23.976 fps
Аудио #01: 48 kHz, AC3, 5.1, 384 Kbps | iTunes | RUS |
Аудио #02: 48 kHz, AC3, 5.1, 448 Kbps | HDRezka Studio | RUS |
Аудио #03: 48 kHz, AC3, 5.1, 640 Kbps | Kyberpunk | RUS |
Аудио #04: 48 kHz, DTS, 5.1, 1510 Kbps | Kyberpunk | RUS |
Аудио #05: 48 kHz, AC3, 5.1, 640 Kbps | Оригинал | ENG |
скриншот  скриншот  скриншот  скриншот  скриншот  

General
Unique ID : 8957137678799559988590363035099806629 (0x6BD14FBCCBF3977913BCEAEC7F53BA5)
Complete name : E:Video111Knives.Out.2019.D.MVO.AVO.BDRip.720p.seleZen.mkv
Format : Matroska
Format version : Version 4
File size : 7.84 GiB
Duration : 2 h 10 min
Overall bit rate : 8 622 kb/s
Movie name : Knives Out 2019 from селезень
Encoded date : UTC 2020-02-19 19:41:25
Writing application : mkvmerge v40.0.0 ('Old Town Road + Pony') 64-bit
Writing library : libebml v1.3.9 + libmatroska v1.5.2

Video
ID : 1
Format : AVC
Format/Info : Advanced Video Codec
Format profile : High@L4.1
Format settings : CABAC / 9 Ref Frames
Format settings, CABAC : Yes
Format settings, Reference : 9 frames
Codec ID : V_MPEG4/ISO/AVC
Duration : 2 h 10 min
Bit rate : 5 000 kb/s
Width : 1 280 pixels
Height : 692 pixels
Display aspect ratio : 1.85:1
Frame rate mode : Constant
Frame rate : 23.976 (24000/1001) FPS
Color space : YUV
Chroma subsampling : 4:2:0
Bit depth : 8 bits
Scan type : Progressive
Bits/(Pixel*Frame) : 0.235
Stream size : 4.55 GiB (58%)
Title : Encoded by seleZen
Writing library : x264 core 142 r2431+42 c69a006 tMod [8-bit@all X86_64]
Encoding settings : cabac=1 / ref=9 / deblock=1:-2:-2 / analyse=0x3:0x133 / me=umh / subme=10 / psy=1 / fade_compensate=0.00 / psy_rd=1.00:0.00 / mixed_ref=1 / me_range=32 / chroma_me=1 / trellis=2 / 8x8dct=1 / cqm=0 / deadzone=21,11 / fast_pskip=0 / chroma_qp_offset=-2 / threads=24 / lookahead_threads=4 / sliced_threads=0 / nr=0 / decimate=0 / interlaced=0 / bluray_compat=0 / constrained_intra=0 / fgo=0 / bframes=8 / b_pyramid=2 / b_adapt=2 / b_bias=0 / direct=3 / weightb=1 / open_gop=0 / weightp=2 / keyint=240 / keyint_min=23 / scenecut=40 / intra_refresh=0 / rc_lookahead=50 / rc=2pass / mbtree=0 / bitrate=5000 / ratetol=1.0 / qcomp=0.60 / qpmin=0:0:0 / qpmax=51:51:51 / qpstep=4 / cplxblur=20.0 / qblur=0.5 / vbv_maxrate=50000 / vbv_bufsize=62500 / nal_hrd=none / filler=0 / ip_ratio=1.40 / pb_ratio=1.30 / aq=3:0.80 / aq-sensitivity=10.00 / aq-factor=1.00:1.00:1.00 / aq2=0 / aq3=0
Language : English
Default : Yes
Forced : No

Audio #1
ID : 2
Format : AC-3
Format/Info : Audio Coding 3
Commercial name : Dolby Digital
Codec ID : A_AC3
Duration : 2 h 10 min
Bit rate mode : Constant
Bit rate : 384 kb/s
Channel(s) : 6 channels
Channel layout : L R C LFE Ls Rs
Sampling rate : 48.0 kHz
Frame rate : 31.250 FPS (1536 SPF)
Compression mode : Lossy
Stream size : 358 MiB (4%)
Title : iTunes
Language : Russian
Service kind : Complete Main
Default : Yes
Forced : Yes

Audio #2
ID : 3
Format : AC-3
Format/Info : Audio Coding 3
Commercial name : Dolby Digital
Codec ID : A_AC3
Duration : 2 h 10 min
Bit rate mode : Constant
Bit rate : 448 kb/s
Channel(s) : 6 channels
Channel layout : L R C LFE Ls Rs
Sampling rate : 48.0 kHz
Frame rate : 31.250 FPS (1536 SPF)
Compression mode : Lossy
Stream size : 417 MiB (5%)
Title : MVO [HDRezka Studio]
Language : Russian
Service kind : Complete Main
Default : No
Forced : No

Audio #3
ID : 4
Format : AC-3
Format/Info : Audio Coding 3
Commercial name : Dolby Digital
Codec ID : A_AC3
Duration : 2 h 10 min
Bit rate mode : Constant
Bit rate : 640 kb/s
Channel(s) : 6 channels
Channel layout : L R C LFE Ls Rs
Sampling rate : 48.0 kHz
Frame rate : 31.250 FPS (1536 SPF)
Compression mode : Lossy
Stream size : 596 MiB (7%)
Title : AVO [Kyberpunk]
Language : Russian
Service kind : Complete Main
Default : No
Forced : No

Audio #4
ID : 5
Format : DTS
Format/Info : Digital Theater Systems
Codec ID : A_DTS
Duration : 2 h 10 min
Bit rate mode : Constant
Bit rate : 1 509 kb/s
Channel(s) : 6 channels
Channel layout : C L R Ls Rs LFE
Sampling rate : 48.0 kHz
Frame rate : 93.750 FPS (512 SPF)
Bit depth : 24 bits
Compression mode : Lossy
Stream size : 1.37 GiB (17%)
Title : AVO [Kyberpunk]
Language : Russian
Default : No
Forced : No

Audio #5
ID : 6
Format : AC-3
Format/Info : Audio Coding 3
Commercial name : Dolby Digital
Codec ID : A_AC3
Duration : 2 h 10 min
Bit rate mode : Constant
Bit rate : 640 kb/s
Channel(s) : 6 channels
Channel layout : L R C LFE Ls Rs
Sampling rate : 48.0 kHz
Frame rate : 31.250 FPS (1536 SPF)
Compression mode : Lossy
Stream size : 596 MiB (7%)
Title : Original
Language : English
Service kind : Complete Main
Default : No
Forced : No

Text #1
ID : 7
Format : UTF-8
Codec ID : S_TEXT/UTF8
Codec ID/Info : UTF-8 Plain Text
Duration : 2 h 4 min
Bit rate : 1 b/s
Count of elements : 38
Stream size : 1.69 KiB (0%)
Title : Forced
Language : Russian
Default : Yes
Forced : Yes

Text #2
ID : 8
Format : UTF-8
Codec ID : S_TEXT/UTF8
Codec ID/Info : UTF-8 Plain Text
Duration : 2 h 4 min
Bit rate : 126 b/s
Count of elements : 1841
Stream size : 115 KiB (0%)
Title : Full
Language : Russian
Default : No
Forced : No

Text #3
ID : 9
Format : UTF-8
Codec ID : S_TEXT/UTF8
Codec ID/Info : UTF-8 Plain Text
Duration : 2 h 2 min
Bit rate : 85 b/s
Count of elements : 2616
Stream size : 76.2 KiB (0%)
Title : Full
Language : English
Default : No
Forced : No

Text #4
ID : 10
Format : UTF-8
Codec ID : S_TEXT/UTF8
Codec ID/Info : UTF-8 Plain Text
Duration : 2 h 2 min
Bit rate : 89 b/s
Count of elements : 2795
Stream size : 79.8 KiB (0%)
Title : SDH
Language : English
Default : No
Forced : No

Menu
00:00:00.000 : en:Chapter 1
00:05:28.036 : en:Chapter 2
00:21:23.115 : en:Chapter 3
00:31:48.698 : en:Chapter 4
00:44:30.960 : en:Chapter 5
00:49:52.364 : en:Chapter 6
00:54:53.582 : en:Chapter 7
00:58:39.766 : en:Chapter 8
01:07:09.776 : en:Chapter 9
01:12:43.943 : en:Chapter 10
01:22:30.279 : en:Chapter 11
01:28:49.741 : en:Chapter 12
01:34:44.429 : en:Chapter 13
01:40:47.458 : en:Chapter 14
01:43:43.634 : en:Chapter 15
02:01:45.131 : en:Chapter 16

pb.wtf



Скачать Достать ножи через торрент https://img15.lostpic.net/2020/02/14/490ae0d40bab8794b64c9958e8f931bd.jpg Скачать фильм Достать ножи через торрент бесплантно в хорошем качестве Описание: События фильма «Достать ножи» начинают свое развитие после юбилея востребованного автора, работающего в жанре криминального ... 10 10 14
Info! Золотая раздача, скачанное не засчитывается.
Торрент: Зарегистрирован [2020-02-19 20:04] · скачан: 117 раз
Статус: √ проверено
Размер: 7.84 GB
Как cкачать? Как скачать Достать ножи через торрент | qTorrent

% Раздел Тема Автор DL S | L
Ultra HD (UHD: 2K, 4K, 8K) — видео сверхвысокой чёткости [ 68.35 GB ] Достать ножи / Knives Out [2019 UHD BDRemux 2160p ] +MVO [HDrezka Studio] +AVO [М. Яроцкий ] bober100 Скачать
5 | 6
Ultra HD (UHD: 2K, 4K, 8K) — видео сверхвысокой чёткости [ 31.31 GB ] Достать ножи / Knives Out [2019 UHD BDRip 2160p] MVO [HDRezka Studio] sheker187 Скачать
7 | 3
Ultra HD (UHD: 2K, 4K, 8K) — видео сверхвысокой чёткости [ 59.2 GB ] Достать ножи / Knives Out [2019 UHD BDRemux 2160p] +MVO [HDrezka Studio] +AVO [М. Яроцкий ] bober100 Скачать
14 | 9
T Фильмы с украинским озвучиванием [ 2 GB ] Достать ножи / Ножі наголо / Knives Out [2019 WEB-DLRip] [Ukr DUB] killermax2013 Скачать
8 | 0
Фильмы [HD 720p, 1080p] (Хороший звук DUB, MVO) [ 12.39 GB ] Достать ножи / Knives Out [2019 BDRip 1080p] +MVO [HDrezka Studio] +AVO [М. Яроцкий ] bober100 Скачать
77 | 24
T Фильмы с украинским озвучиванием [ 9.43 GB ] Достать ножи / Ножі наголо / Knives Out [2019 WEB-DL 1080p] [Ukr DUB] killermax2013 Скачать
3 | 1
Фильмы (Blu-ray, BD-Remux, HDDVD) [ 29.95 GB ] Достать ножи / Knives Out [2019 BD Remux 1080p] +MVO [HDrezka Studio] +AVO [М. Яроцкий ] bober100 Скачать
2 | 1

28-11-2019 20:33  

Отключить всю рекламу на сайте

    Дорогой пользователь! Огромная просьба, поблагодарите релизера, оцените раздачу и оставьте свои комментарий, если Вы скачали Достать ножи через торрент бесплатно! Внесите свою лепту в развитие PiratBit!
    Комментировать посты могут только пользователи прошедшие не сложную регистрацию
    Показать сообщения:    

    Достать ножи через торрент
    Скачать бесплатно Достать ножи
    Достать ножи скачать торрент
    Достать ножи смотреть онлайн
    Cкачать фильм Достать ножи бесплатно
    Достать ножи скачать торрент в хорошем качестве
    Достать ножи смотреть онлайн бесплатно в хорошем качестве


    Вы не можете начинать темы
    Вы не можете отвечать на сообщения
    Вы не можете редактировать свои сообщения
    Вы не можете удалять свои сообщения
    Вы не можете голосовать в опросах
    Вы не можете прикреплять файлы к сообщениям
    Вы можете скачивать файлы