Ссылка на приватное зеркало нашего сайта всего за 1$. Внимание количество ограничено!!!

2 сезон

iTunes

1 сезон

1

iTunes

iTunes

iTunes

1 сезон

RePack

30

ИГРА 18+

pack

ВАЖНО

!!Акция!!

Alien_RageХит недели

RePack

MK11
pack

Забери бонус

RePack

jed

!!Акция!!

Alien_Rage

RePack

fifa19

RePack

Assassins Creed: Odyssey

RePack

NEED FOR SPEED™ PAYBACK

4 сезон

9 сезон

Бесстыжие 9 сезон

Все сериалы

все сериалы на PB.wtf

RePack

FAR CRY 5
  

Адвокат Ардашевъ. Маскарадъ со смертью / Серии: 1-4 из 4 (Сергей Мезенцев) [2019, Ретро-детектив, SATRip] pb.wtf

Адвокат Ардашевъ. Маскарадъ со смертью через торрент pb.wtf

Размер: 2.31 GB | Добавлен: 8 мес. назад | Торрент скачан:37 раз
Скачать  

14-02-2020 19:17 Адвокат Ардашевъ. Маскарадъ со смертью Скачать торрент  

Адвокат Ардашевъ. Маскарадъ со смертью
Год выпуска: 2019
Страна: Россия
Жанр: Ретро-детектив
Продолжительность: ~ 00:45:00 серия
Субтитры: отсутствуют

Режиссер: Сергей Мезенцев



В ролях: Антон Хабаров, Евгения Розанова, Дмитрий Блохин, Борис Эстрин, Глеб Подгородинский, Андрей Градов, Кристина Борейко, Андрей Рыклин, Александра Лупашко, Антон Фигуровский, Вилен Бабичев, Алексей Суренский, Олег Евтеев

Описание: Экранизация детективного романа "Маскарад со смертью»" Ивана Любенко. 1907 год. Бывший чиновник по особым поручениям Клим Пантелеевич Ардашев выходит в отставку из-за серьезного ранения, которое получил при выполнении секретной миссии на Ближнем Востоке. Он переезжает из Петербурга в провинцию, где хочет вести спокойную и тихую жизнь, и вскоре становится знаменитым адвокатом. Он не проиграл ни одного процесса, его услугами мечтают воспользоваться многие. Однако стать клиентом Клима Пантелеевича непросто – и речь не о деньгах. У Ардашева есть жесткий принцип: он берется за дело только в том случае, если совершенно уверен в невиновности клиента.

Качество: SATRip
Формат: AVI

Видео: XviD, 720x400, ~ 1700 Кбит/с, 0.235 bit/pixel
Аудио: МР3, 48,0 КГц, 2 ch, 192 Кбит/с
скриншот  скриншот  скриншот  скриншот  скриншот  

Общее
Полное имя : D:\Адвокат.Ардашевъ.Маскарадъ.со.Смертью.XviD.2019.SATRip.7turza\01.Адвокат.Ардашевъ.Маскарадъ.со.Смертью.Kinozal-Reliz.7turza.avi
Формат : AVI
Формат/Информация : Audio Video Interleave
Размер файла : 606 Мбайт
Продолжительность : 44 м. 34 с.
Общий поток : 1899 Кбит/сек
Название фильма : S01 E01 # from 7turza #
Программа кодирования : Lavf58.29.100

Видео
Идентификатор : 0
Формат : MPEG-4 Visual
Профиль формата : Advanced Simple@L5
Настройки формата : BVOP1
Параметр BVOP формата : 1
Параметр QPel формата : Нет
Параметр GMC формата : Без точки перехода
Параметр матрицы формата : Default (H.263)
Идентификатор кодека : XVID
Идентификатор кодека/Подсказка : XviD
Продолжительность : 44 м. 34 с.
Битрейт : 1694 Кбит/сек
Ширина : 720 пикселей
Высота : 400 пикселей
Соотношение сторон : 1,85:1
Частота кадров : 25,000 кадров/сек
Цветовое пространство : YUV
Субдискретизация насыщенности : 4:2:0
Битовая глубина : 8 бит
Тип развёртки : Прогрессивная
Бит/(Пиксели*Кадры) : 0.235
Размер потока : 540 Мбайт (89%)
Библиотека кодирования : XviD 67

Аудио
Идентификатор : 1
Формат : MPEG Audio
Версия формата : Version 1
Профиль формата : Layer 3
Настройки формата : Joint stereo / MS Stereo
Идентификатор кодека : 55
Идентификатор кодека/Подсказка : MP3
Продолжительность : 44 м. 34 с.
Вид битрейта : Постоянный
Битрейт : 192 Кбит/сек
Каналы : 2 канала
Частота : 48,0 КГц
Размер потока : 61,2 Мбайт (10%)
Выравнивание : Соединение по промежуткам
Продолжительность промежутка : 24 мс. (0,60 видеокадр)
Библиотека кодирования : LAME3.100

pb.wtf



Скачать Адвокат Ардашевъ. Маскарадъ со смертью через торрент https://a.radikal.ru/a34/1911/3e/6ca10a2e643a.jpg Скачать фильм Адвокат Ардашевъ. Маскарадъ со смертью через торрент бесплантно в хорошем качестве Описание: Экранизация детективного романа "Маскарад со смертью»" Ивана Любенко. 1907 год. Бывший чиновник по особым поручениям Клим ... 10 10 3
Торрент: Зарегистрирован [2020-02-14 19:17] · скачан: 37 раз
Статус: √ проверено
Размер: 2.31 GB
Как cкачать? Как скачать Адвокат Ардашевъ. Маскарадъ со смертью через торрент | qTorrent

% Раздел Тема Автор DL S | L
Наши сериалы [ 2.24 GB ] Адвокат Ардашевъ. Маскарадъ со смертью / Серии: 1-4 из 4 [2019 Ретро- WEB-DLRip-AVC] bober100 Скачать
2 | 0
Наши сериалы [ 2.25 GB ] Адвокат Ардашевъ. Маскарадъ со смертью / Серии: 1-4 из 4 [2019 Ретро- WEB-DLRip] bober100 Скачать
1 | 0

28-11-2019 20:33  

Отключить всю рекламу на сайте

    Дорогой пользователь! Огромная просьба, поблагодарите релизера, оцените раздачу и оставьте свои комментарий, если Вы скачали Адвокат Ардашевъ. Маскарадъ со смертью через торрент бесплатно! Внесите свою лепту в развитие PiratBit!
    Комментировать посты могут только пользователи прошедшие не сложную регистрацию
    Показать сообщения:    

    Адвокат Ардашевъ. Маскарадъ со смертью через торрент
    Скачать бесплатно Адвокат Ардашевъ. Маскарадъ со смертью
    Адвокат Ардашевъ. Маскарадъ со смертью скачать торрент
    Адвокат Ардашевъ. Маскарадъ со смертью смотреть онлайн
    Cкачать фильм Адвокат Ардашевъ. Маскарадъ со смертью бесплатно
    Адвокат Ардашевъ. Маскарадъ со смертью скачать торрент в хорошем качестве
    Адвокат Ардашевъ. Маскарадъ со смертью смотреть онлайн бесплатно в хорошем качестве


    Вы не можете начинать темы
    Вы не можете отвечать на сообщения
    Вы не можете редактировать свои сообщения
    Вы не можете удалять свои сообщения
    Вы не можете голосовать в опросах
    Вы не можете прикреплять файлы к сообщениям
    Вы можете скачивать файлы