Ссылка на приватное зеркало нашего сайта всего за 1$. Внимание количество ограничено!!!

2 сезон

iTunes

1 сезон

1

2 сезон

2 сезон

iTunes

1 сезон

RePack

30

Новинка

ВАЖНО

ИГРА 18+

pack

RePack

MK11
pack

Забери бонус

RePack

jed

!!Акция!!

Alien_Rage

RePack

fifa19

RePack

Assassins Creed: Odyssey

RePack

NEED FOR SPEED™ PAYBACK

4 сезон

9 сезон

Бесстыжие 9 сезон

Все сериалы

все сериалы на PB.wtf

RePack

FAR CRY 5
  

Первая любовь / Hatsukoi / First Love (Такаси Миике) [2019, Криминал, мелодрама, боевик, BD Remux 1080p] DUB [iTunes] pb.wtf

Первая любовь через торрент pb.wtf

Размер: 15.87 GB | Добавлен: 9 мес. назад | Торрент скачан:15 раз
Скачать  

14-02-2020 21:38 Первая любовь Скачать торрент  

Первая любовь | Hatsukoi | First Love
Год выпуска: 2019
Страна: Япония, Великобритания
Студия: Oriental Light and Magic, Recorded Picture Company (RPC), Toei Co. Ltd.
Жанр: Криминал, мелодрама, боевик
Продолжительность: 01:48:16
Перевод: Дублированный | iTunes
Субтитры: Английские

Режиссер: Такаси Миике

rating

В ролях: Масатака Кубота, Сакурако Кониси, Нао Омори, Сёта Сомэтани, Сэиё Утино, Беки, Дзюн Мураками, Сансэй Сиоми

Описание: Рео и Моника — боксер со смертельным диагнозом и проститутка-наркоманка, влипшая в долги… Любовь, первая любовь настигает их внезапно. Но их чувство и жизнь под угрозой: за парочкой гонятся якудза, продажный коп, киллерша, посланная китайской триадой, и даже призрак в белой простыне… Безумная ночь в безумном Токио.

Качество: BD Remux 1080p
Формат: MKV

Видео: MPEG-4 AVC, 1920x1080, 18.4 Mbit/s, 23.976 fps
Аудио #01: 48 kHz, AC3, 5.1, 384 Kbps | iTunes | RUS |
Аудио #02: 48 kHz, DTS-HD MA, 5.1, 2181 Kbps | Оригинал | ENG |
скриншот  скриншот  скриншот  скриншот  скриншот  

General
Unique ID : 301027877043823708822388202889866020357 (0xE277DC394E0797DBBF6E6E16B3D68605)
Complete name : E:Video111First.Love.2019.BDREMUX.1080p.seleZen.mkv
Format : Matroska
Format version : Version 4
File size : 15.9 GiB
Duration : 1 h 48 min
Overall bit rate mode : Variable
Overall bit rate : 21.0 Mb/s
Movie name : Hatsukoi AKA First Love 2019 from селезень
Encoded date : UTC 2020-02-14 21:23:25
Writing application : mkvmerge v40.0.0 ('Old Town Road + Pony') 64-bit
Writing library : libebml v1.3.9 + libmatroska v1.5.2

Video
ID : 1
Format : AVC
Format/Info : Advanced Video Codec
Format profile : High@L4.1
Format settings : CABAC / 4 Ref Frames
Format settings, CABAC : Yes
Format settings, Reference : 4 frames
Codec ID : V_MPEG4/ISO/AVC
Duration : 1 h 48 min
Bit rate mode : Variable
Bit rate : 18.4 Mb/s
Maximum bit rate : 19.0 Mb/s
Width : 1 920 pixels
Height : 1 080 pixels
Display aspect ratio : 16:9
Frame rate mode : Constant
Frame rate : 23.976 (24000/1001) FPS
Color space : YUV
Chroma subsampling : 4:2:0
Bit depth : 8 bits
Scan type : Progressive
Bits/(Pixel*Frame) : 0.370
Stream size : 13.9 GiB (88%)
Language : Japanese
Default : Yes
Forced : No

Audio #1
ID : 2
Format : AC-3
Format/Info : Audio Coding 3
Commercial name : Dolby Digital
Codec ID : A_AC3
Duration : 1 h 48 min
Bit rate mode : Constant
Bit rate : 384 kb/s
Channel(s) : 6 channels
Channel layout : L R C LFE Ls Rs
Sampling rate : 48.0 kHz
Frame rate : 31.250 FPS (1536 SPF)
Compression mode : Lossy
Stream size : 297 MiB (2%)
Title : iTunes
Language : Russian
Service kind : Complete Main
Default : Yes
Forced : Yes

Audio #2
ID : 3
Format : DTS XLL
Format/Info : Digital Theater Systems
Commercial name : DTS-HD Master Audio
Codec ID : A_DTS
Duration : 1 h 48 min
Bit rate mode : Variable
Bit rate : 2 181 kb/s
Channel(s) : 6 channels
Channel layout : C L R Ls Rs LFE
Sampling rate : 48.0 kHz
Frame rate : 93.750 FPS (512 SPF)
Bit depth : 16 bits
Compression mode : Lossless
Stream size : 1.65 GiB (10%)
Title : Original
Language : English
Default : No
Forced : No

Text
ID : 4
Format : UTF-8
Codec ID : S_TEXT/UTF8
Codec ID/Info : UTF-8 Plain Text
Duration : 1 h 46 min
Bit rate : 32 b/s
Count of elements : 1079
Stream size : 25.5 KiB (0%)
Language : English
Default : No
Forced : No

Menu
00:00:00.000 : :Chapter 01
00:05:00.000 : :Chapter 02
00:10:00.000 : :Chapter 03
00:15:00.000 : :Chapter 04
00:20:00.000 : :Chapter 05
00:25:00.000 : :Chapter 06
00:30:00.000 : :Chapter 07
00:35:00.000 : :Chapter 08
00:40:00.000 : :Chapter 09
00:45:00.000 : :Chapter 10
00:50:00.000 : :Chapter 11
00:55:00.000 : :Chapter 12
01:00:00.000 : :Chapter 13
01:05:00.000 : :Chapter 14
01:10:00.000 : :Chapter 15
01:15:00.000 : :Chapter 16
01:20:00.000 : :Chapter 17
01:25:00.000 : :Chapter 18
01:30:00.000 : :Chapter 19
01:35:00.000 : :Chapter 20
01:40:00.000 : :Chapter 21
01:45:00.000 : :Chapter 22

pb.wtf



Скачать Первая любовь через торрент https://img15.lostpic.net/2020/02/14/2892bdfd84c4956ad52973df7ec8f02f.jpg Скачать фильм Первая любовь через торрент бесплантно в хорошем качестве Описание: Рео и Моника — боксер со смертельным диагнозом и проститутка-наркоманка, влипшая в долги… Любовь, первая любовь настигает их ... 8.3 10 4
Торрент: Зарегистрирован [2020-02-14 21:38] · скачан: 15 раз
Статус: √ проверено
Размер: 15.87 GB
Как cкачать? Как скачать Первая любовь через торрент | qTorrent

% Раздел Тема Автор DL S | L
Азиатские фильмы [ 1.46 GB ] Первая любовь / Hatsukoi / First Love [2019 BDRip] bober100 Скачать
11 | 1
Азиатские фильмы [ 8.21 GB ] Первая любовь / Hatsukoi / First Love [2019 BDRip 1080p] bober100 Скачать
2 | 0
Азиатские фильмы [ 3.2 GB ] Первая любовь / Hatsukoi / First Love [2019 WEB-DL 720p] bober100 Скачать
1 | 0
Азиатские фильмы [ 3.58 GB ] Первая любовь / Hatsukoi / First Love [2019 WEB-DL 1080p] bober100 Скачать
1 | 0

28-11-2019 20:33  

Отключить всю рекламу на сайте

    Дорогой пользователь! Огромная просьба, поблагодарите релизера, оцените раздачу и оставьте свои комментарий, если Вы скачали Первая любовь через торрент бесплатно! Внесите свою лепту в развитие PiratBit!
    Комментировать посты могут только пользователи прошедшие не сложную регистрацию
    Показать сообщения:    

    Первая любовь через торрент
    Скачать бесплатно Первая любовь
    Первая любовь скачать торрент
    Первая любовь смотреть онлайн
    Cкачать фильм Первая любовь бесплатно
    Первая любовь скачать торрент в хорошем качестве
    Первая любовь смотреть онлайн бесплатно в хорошем качестве


    Вы не можете начинать темы
    Вы не можете отвечать на сообщения
    Вы не можете редактировать свои сообщения
    Вы не можете удалять свои сообщения
    Вы не можете голосовать в опросах
    Вы не можете прикреплять файлы к сообщениям
    Вы можете скачивать файлы