Ссылка на приватное зеркало всего за 1$. Внимание количество ограничено!!!

iTunes

1+1

iTunes

мы

MV0

1

WEB-DLRip

Джокер

Пифагор

Ведьмак / The Witcher сериал

iTunes

ПШазам

iTunes

Оно 2

iTunes

30
pack

Вам бонус

ВАЖНО

!!Акция!!

Alien_RageХит недели

RePack

Resident Evil 21

ИГРА 18+

pack

RePack

jed

!!Акция!!

Alien_Rage

RePack

fifa19

RePack

Assassins Creed: Odyssey

RePack

NEED FOR SPEED™ PAYBACK

4 сезон

9 сезон

Бесстыжие 9 сезон

Все сериалы

все сериалы на PB.wtf

RePack

FAR CRY 5
  

Достать ножи / Knives Out (Райан Джонсон) [2019, детектив, комедия, драма, криминал, UHD BDRemux 2160p] DUB [iTunes] +MVO [HDrezka Studio] +AVO [М. Яроцкий (Kyberpunk)] pb.wtf

Достать ножи через торрент pb.wtf

Раздают: 14 [ 13 MB/s ] Качают: 11 [ 35 MB/s ]
Размер: 59.2 GB | Добавлен: 1 д. 19 ч. назад | Торрент скачан:15 раз
Скачать  

15-02-2020 03:57 Достать ножи Скачать торрент  

Достать ножи | Knives Out
Год выпуска: 2019
Страна: США
Выпущено: Lionsgate, Media Rights Capital (MRC), T-Street See
Жанр: детектив, комедия, драма, криминал
Продолжительность: 02:10:13
Перевод:
#1: Дублированный | iTunes
#2: Профессиональный (многоголосый закадровый) | HDRezka Studio
#3: Авторский | Яроцкий (Kyberpunk)
Субтитры: Русские (Forced, full), английские

Режиссер: Райан Джонсон

rating

В ролях:

Дэниэл Крэйг (Benoit Blanc), Ана де Армас (Marta Cabrera), Крис Эванс (Ransom Drysdale), Джейми Ли Кёртис (Linda Drysdale), Майкл Шеннон (Walt Thrombey), Дон Джонсон (Richard Drysdale), Тони Коллетт (Joni Thrombey), Лакит Стэнфилд (Lieutenant Elliott), Кристофер Пламмер (Harlan Thrombey), Кэтрин Лэнгфорд (Meg Thrombey), Джейден Мартелл (Jacob Thrombey), Рики Линдхоум (Donna Thrombey)
Описание: События фильма «Достать ножи» начинают свое развитие после юбилея востребованного автора, работающего в жанре криминального романа. Являясь популярным писателем, он привлекает к своей персоне много внимания. Но чаще всего автор получает восторженные отзывы от читателей и критиков. Несмотря на это, у него есть враги. Сразу же после юбилея тело писателя обнаруживают случайные прохожие. Они вызывают полицейских на место преступления. Вскоре после этого начинается официальное расследование, которое поручают очень дотошному, но харизматичному детективу. Он сразу же с головой погружается в изучение материалов дела и приходит к выводу, что оно может быть одним из самых сложных в его непростой карьере. Ему нужно найти способ разорвать сотканную паутину из лжи и хитрых уловок, которой его пытаются опутать члены семейства убитого писателя. Впереди главного героя ждет множество скелетов в шкафах и мрачных тайн.

Качество: UHD BDRemux 2160p
Формат: MKV

Видео: 3840x2160 at 23.976 fps, MPEG-H HEVC HDR Video, 55500 kbps avg
Аудио #01: 48 kHz, AC3, 5.1, 384 Kbps | iTunes | RUS |
Аудио #02: 48 kHz, AC3, 5.1, 448 Kbps | HDRezka Studio | RUS |
Аудио #03: 48 kHz, AC3, 5.1, 640 Kbps | Kyberpunk | RUS |
Аудио #04: 48 kHz, DTS-HD MA, 7.1, 4826 Kbps | Kyberpunk | RUS |
Аудио #05: 48 kHz, TrueHD, 7.1, 2585 Kbps | Оригинал | ENG |
Аудио #06: 48 kHz, AC3, 5.1, 640 Kbps | Оригинал | ENG |
скриншот  скриншот  скриншот  скриншот  скриншот  

General
Unique ID : 54797607471935323293210770905885567866 (0x2939A2A3BF83D3B5EEAAAD31C69FEB7A)
Complete name : E:Video111Knives.Out.2019.D.MVO.AVO.BDREMUX.2160p.HDR.seleZen.mkv
Format : Matroska
Format version : Version 4
File size : 59.2 GiB
Duration : 2 h 10 min
Overall bit rate mode : Variable
Overall bit rate : 65.1 Mb/s
Movie name : Knives Out 2019 from селезень
Encoded date : UTC 2020-02-19 20:01:33
Writing application : mkvmerge v40.0.0 ('Old Town Road + Pony') 64-bit
Writing library : libebml v1.3.9 + libmatroska v1.5.2

Video
ID : 1
Format : HEVC
Format/Info : High Efficiency Video Coding
Format profile : Main 10@L5.1@High
HDR format : SMPTE ST 2086, HDR10 compatible
Codec ID : V_MPEGH/ISO/HEVC
Duration : 2 h 10 min
Bit rate : 55.5 Mb/s
Width : 3 840 pixels
Height : 2 160 pixels
Display aspect ratio : 16:9
Frame rate mode : Constant
Frame rate : 23.976 (24000/1001) FPS
Color space : YUV
Chroma subsampling : 4:2:0 (Type 2)
Bit depth : 10 bits
Bits/(Pixel*Frame) : 0.279
Stream size : 50.5 GiB (85%)
Language : English
Default : Yes
Forced : No
Color range : Limited
Color primaries : BT.2020
Transfer characteristics : PQ
Matrix coefficients : BT.2020 non-constant
Mastering display color pri : BT.2020
Mastering display luminance : min: 0.0001 cd/m2, max: 1000 cd/m2
Maximum Content Light Level : 267 cd/m2
Maximum Frame-Average Light : 89 cd/m2

Audio #1
ID : 2
Format : AC-3
Format/Info : Audio Coding 3
Commercial name : Dolby Digital
Codec ID : A_AC3
Duration : 2 h 10 min
Bit rate mode : Constant
Bit rate : 384 kb/s
Channel(s) : 6 channels
Channel layout : L R C LFE Ls Rs
Sampling rate : 48.0 kHz
Frame rate : 31.250 FPS (1536 SPF)
Compression mode : Lossy
Stream size : 358 MiB (1%)
Title : iTunes
Language : Russian
Service kind : Complete Main
Default : Yes
Forced : Yes

Audio #2
ID : 3
Format : AC-3
Format/Info : Audio Coding 3
Commercial name : Dolby Digital
Codec ID : A_AC3
Duration : 2 h 10 min
Bit rate mode : Constant
Bit rate : 448 kb/s
Channel(s) : 6 channels
Channel layout : L R C LFE Ls Rs
Sampling rate : 48.0 kHz
Frame rate : 31.250 FPS (1536 SPF)
Compression mode : Lossy
Stream size : 417 MiB (1%)
Title : MVO [HDRezka Studio]
Language : Russian
Service kind : Complete Main
Default : No
Forced : No

Audio #3
ID : 4
Format : AC-3
Format/Info : Audio Coding 3
Commercial name : Dolby Digital
Codec ID : A_AC3
Duration : 2 h 10 min
Bit rate mode : Constant
Bit rate : 640 kb/s
Channel(s) : 6 channels
Channel layout : L R C LFE Ls Rs
Sampling rate : 48.0 kHz
Frame rate : 31.250 FPS (1536 SPF)
Compression mode : Lossy
Stream size : 596 MiB (1%)
Title : AVO [Kyberpunk]
Language : Russian
Service kind : Complete Main
Default : No
Forced : No

Audio #4
ID : 5
Format : DTS XLL
Format/Info : Digital Theater Systems
Commercial name : DTS-HD Master Audio
Codec ID : A_DTS
Duration : 2 h 10 min
Bit rate mode : Variable
Bit rate : 4 826 kb/s
Channel(s) : 8 channels
Channel layout : C L R LFE Lb Rb Lss Rss
Sampling rate : 48.0 kHz
Frame rate : 93.750 FPS (512 SPF)
Bit depth : 24 bits
Compression mode : Lossless
Stream size : 4.39 GiB (7%)
Title : AVO [Kyberpunk]
Language : Russian
Default : No
Forced : No

Audio #5
ID : 6
Format : MLP FBA 16-ch
Format/Info : Meridian Lossless Packing FBA with 16-channel presentation
Commercial name : Dolby TrueHD with Dolby Atmos
Codec ID : A_TRUEHD
Duration : 2 h 10 min
Bit rate mode : Variable
Bit rate : 2 585 kb/s
Maximum bit rate : 3 012 kb/s
Channel(s) : 8 channels
Channel layout : L R C LFE Ls Rs Lb Rb
Sampling rate : 48.0 kHz
Frame rate : 1 200.000 FPS (40 SPF)
Compression mode : Lossless
Stream size : 2.35 GiB (4%)
Title : Original
Language : English
Default : No
Forced : No
Number of dynamic objects : 11
Bed channel count : 1 channel
Bed channel configuration : LFE

Audio #6
ID : 7
Format : AC-3
Format/Info : Audio Coding 3
Commercial name : Dolby Digital
Codec ID : A_AC3
Duration : 2 h 10 min
Bit rate mode : Constant
Bit rate : 640 kb/s
Channel(s) : 6 channels
Channel layout : L R C LFE Ls Rs
Sampling rate : 48.0 kHz
Frame rate : 31.250 FPS (1536 SPF)
Compression mode : Lossy
Stream size : 596 MiB (1%)
Language : English
Service kind : Complete Main
Default : No
Forced : No

Text #1
ID : 8
Format : UTF-8
Codec ID : S_TEXT/UTF8
Codec ID/Info : UTF-8 Plain Text
Duration : 2 h 4 min
Bit rate : 1 b/s
Count of elements : 38
Stream size : 1.69 KiB (0%)
Title : Forced
Language : Russian
Default : Yes
Forced : Yes

Text #2
ID : 9
Format : UTF-8
Codec ID : S_TEXT/UTF8
Codec ID/Info : UTF-8 Plain Text
Duration : 2 h 4 min
Bit rate : 126 b/s
Count of elements : 1841
Stream size : 115 KiB (0%)
Title : Full
Language : Russian
Default : No
Forced : No

Text #3
ID : 10
Format : UTF-8
Codec ID : S_TEXT/UTF8
Codec ID/Info : UTF-8 Plain Text
Duration : 2 h 2 min
Bit rate : 85 b/s
Count of elements : 2616
Stream size : 76.2 KiB (0%)
Title : Full
Language : English
Default : No
Forced : No

Text #4
ID : 11
Format : UTF-8
Codec ID : S_TEXT/UTF8
Codec ID/Info : UTF-8 Plain Text
Duration : 2 h 2 min
Bit rate : 89 b/s
Count of elements : 2795
Stream size : 79.8 KiB (0%)
Title : SDH
Language : English
Default : No
Forced : No

Menu
00:00:00.000 : en:Chapter 1
00:05:28.036 : en:Chapter 2
00:21:23.115 : en:Chapter 3
00:31:48.698 : en:Chapter 4
00:44:30.960 : en:Chapter 5
00:49:52.364 : en:Chapter 6
00:54:53.582 : en:Chapter 7
00:58:39.766 : en:Chapter 8
01:07:09.776 : en:Chapter 9
01:12:43.943 : en:Chapter 10
01:22:30.279 : en:Chapter 11
01:28:49.741 : en:Chapter 12
01:34:44.429 : en:Chapter 13
01:40:47.458 : en:Chapter 14
01:43:43.634 : en:Chapter 15
02:01:45.131 : en:Chapter 16

pb.wtf



Скачать Достать ножи через торрент https://img15.lostpic.net/2020/02/15/9617a6790b5afdc1e4e34085923111d9.jpg Скачать фильм Достать ножи через торрент бесплантно в хорошем качестве Описание: События фильма «Достать ножи» начинают свое развитие после юбилея востребованного автора, работающего в жанре криминального ... 9.8 10 6
Торрент: Зарегистрирован [2020-02-19 20:16] · скачан: 15 раз
Статус: √ проверено
Размер: 59.2 GB
Как cкачать? Как скачать Достать ножи через торрент | qTorrent

% Раздел Тема Автор DL S | L
Ultra HD (UHD: 2K, 4K, 8K) — видео сверхвысокой чёткости [ 68.35 GB ] Достать ножи / Knives Out [2019 UHD BDRemux 2160p ] +MVO [HDrezka Studio] +AVO [М. Яроцкий ] bober100 Скачать
3 | 5
Ultra HD (UHD: 2K, 4K, 8K) — видео сверхвысокой чёткости [ 31.31 GB ] Достать ножи / Knives Out [2019 UHD BDRip 2160p] MVO [HDRezka Studio] sheker187 Скачать
7 | 4
T Фильмы с украинским озвучиванием [ 2 GB ] Достать ножи / Ножі наголо / Knives Out [2019 WEB-DLRip] [Ukr DUB] killermax2013 Скачать
8 | 0
Фильмы [HD 720p, 1080p] (Хороший звук DUB, MVO) [ 12.39 GB ] Достать ножи / Knives Out [2019 BDRip 1080p] +MVO [HDrezka Studio] +AVO [М. Яроцкий ] bober100 Скачать
88 | 24
Фильмы [HD 720p, 1080p] (Хороший звук DUB, MVO) [ 7.84 GB ] Достать ножи / Knives Out [2019 BDRip 720p] +MVO [HDrezka Studio] +AVO [М. Яроцкий ] bober100 Скачать
46 | 15
T Фильмы с украинским озвучиванием [ 9.43 GB ] Достать ножи / Ножі наголо / Knives Out [2019 WEB-DL 1080p] [Ukr DUB] killermax2013 Скачать
3 | 1
Фильмы (Blu-ray, BD-Remux, HDDVD) [ 29.95 GB ] Достать ножи / Knives Out [2019 BD Remux 1080p] +MVO [HDrezka Studio] +AVO [М. Яроцкий ] bober100 Скачать
3 | 0

28-11-2019 20:33  

Отключить всю рекламу на сайте

    Дорогой пользователь! Огромная просьба, поблагодарите релизера, оцените раздачу и оставьте свои комментарий, если Вы скачали Достать ножи через торрент бесплатно! Внесите свою лепту в развитие PiratBit!
    Комментировать посты могут только пользователи прошедшие не сложную регистрацию
    Показать сообщения:    

    Достать ножи через торрент
    Скачать бесплатно Достать ножи
    Достать ножи скачать торрент
    Достать ножи смотреть онлайн
    Cкачать фильм Достать ножи бесплатно
    Достать ножи скачать торрент в хорошем качестве
    Достать ножи смотреть онлайн бесплатно в хорошем качестве


    Вы не можете начинать темы
    Вы не можете отвечать на сообщения
    Вы не можете редактировать свои сообщения
    Вы не можете удалять свои сообщения
    Вы не можете голосовать в опросах
    Вы не можете прикреплять файлы к сообщениям
    Вы можете скачивать файлы