2 сезон

iTunes

1 сезон

1

iTunes

iTunes

iTunes

1 сезон

RePack

30

ИГРА 18+

pack

ВАЖНО

!!Акция!!

Alien_RageХит недели

RePack

MK11
pack

Забери бонус

RePack

jed

!!Акция!!

Alien_Rage

RePack

fifa19

RePack

Assassins Creed: Odyssey

RePack

NEED FOR SPEED™ PAYBACK

4 сезон

9 сезон

Бесстыжие 9 сезон

Все сериалы

все сериалы на PB.wtf

RePack

FAR CRY 5
  

Красавица и воры / Серии: 1-2 из 2 (Андрей Силкин) [2020, Детектив, мелодрама, WEB-DLRip] pb.wtf

Красавица и воры через торрент pb.wtf

Размер: 1.09 GB | Добавлен: 8 мес. назад | Торрент скачан:25 раз
Скачать  

15-02-2020 05:44 Красавица и воры Скачать торрент  

Красавица и воры Год выпуска: 2020
Страна: Россия
Жанр: Детектив, мелодрама
Продолжительность: ~ 00:43:00 серия
Субтитры: отсутствуют

Режиссер: Андрей Силкин



В ролях: Светлана Антонова, Максим Щёголев, Анастасия Панина, Анатолий Лобоцкий, Максим Коновалов, Михаил Дорожкин, Ирина Баринова, Вахтанг Беридзе, Елена Муравьёва, Александр Красовский, Андрей Наконечный, Иван Гришанов, Юлия Юшина, Артур Бичахчян

Описание: Следователь прокуратуры Валерия отметила тридцатипятилетие и готовится получить очередное звание. Однако вместо повышения ее временно отстраняют от работы, поскольку пропало пустяковое дело, которое она вела. Валерия подавлена, и ее лучшая подруга Ася решает отправить ее в косметический салон. Там следователь узнает о таинственном обольстителе, похищающем не только драгоценности доверчивых дам, но и важные документы их мужчин. Она решает изловить преступника и с победой вернуться на службу.

Качество: WEB-DLRip
Формат: AVI

Видео: XviD, ~ 1600 Кбит/с, 720x400
Аудио: AC3, 2 ch, 192 Кбит/с
скриншот  скриншот  скриншот  скриншот  

General
Complete name : H:fiiles xКрасавица и воры .2020.WEB-DLRip.Files-x2. Красавица и воры .2020.WEB-DLRip.Files-x.avi
Format : AVI
Format/Info : Audio Video Interleave
File size : 561 MiB
Duration : 43mn 31s
Overall bit rate : 1 801 Kbps
Writing application : VirtualDubMod 1.5.10.3 | www.virtualdub-fr.org || (build 2550/release)
Writing library : VirtualDubMod build 2550/release

Video
ID : 0
Format : MPEG-4 Visual
Format profile : Advanced Simple@L5
Format settings, BVOP : 1
Format settings, QPel : No
Format settings, GMC : No warppoints
Format settings, Matrix : Custom
Codec ID : XVID
Codec ID/Hint : XviD
Duration : 43mn 31s
Bit rate : 1 600 Kbps
Width : 720 pixels
Height : 400 pixels
Display aspect ratio : 16:9
Frame rate : 25.000 fps
Color space : YUV
Chroma subsampling : 4:2:0
Bit depth : 8 bits
Scan type : Progressive
Compression mode : Lossy
Bits/(Pixel*Frame) : 0.222
Stream size : 498 MiB (89%)
Writing library : XviD 73

Audio
ID : 1
Format : AC-3
Format/Info : Audio Coding 3
Mode extension : CM (complete main)
Codec ID : 2000
Duration : 43mn 31s
Bit rate mode : Constant
Bit rate : 192 Kbps
Channel(s) : 2 channels
Channel positions : Front: L R
Sampling rate : 48.0 KHz
Bit depth : 16 bits
Compression mode : Lossy
Stream size : 59.8 MiB (11%)
Alignment : Split accross interleaves
Interleave, duration : 40 ms (1.00 video frame)
Interleave, preload duration : 500 ms

pb.wtf



Скачать Красавица и воры через торрент https://i111.fastpic.ru/big/2020/0214/f3/dce867816c9a3d6f3645026d5a7c63f3.jpg Скачать фильм Красавица и воры через торрент бесплантно в хорошем качестве Описание: Следователь прокуратуры Валерия отметила тридцаятилетие и готовится получить очередное звание. Однако вместо повышения ее ... 10 10 3
Торрент: Зарегистрирован [2020-02-15 05:44] · скачан: 25 раз
Статус: √ проверено
Размер: 1.09 GB
Как cкачать? Как скачать Красавица и воры через торрент | qTorrent

% Раздел Тема Автор DL S | L
Наши сериалы [ 3.27 GB ] Красавица и воры / Серии: 1-2 из 2 [2020 WEB-DL 1080p] bober100 Скачать
2 | 0
Наши сериалы [ 1.7 GB ] Красавица и воры / Серии: 1-2 из 2 [2020 WEB-DL 720p] bober100 Скачать
1 | 0
Наши сериалы [ 1.08 GB ] Красавица и воры / Серии: 1-2 из 2 [2020 WEB-DLRip-AVC] bober100 Скачать
1 | 0
Наши сериалы [ 1.02 GB ] Красавица и воры / Серии: 1-2 из 2 [2020 SATRip-AVC] aleksan55 Скачать
1 | 0

28-11-2019 20:33  

Отключить всю рекламу на сайте

    Дорогой пользователь! Огромная просьба, поблагодарите релизера, оцените раздачу и оставьте свои комментарий, если Вы скачали Красавица и воры через торрент бесплатно! Внесите свою лепту в развитие PiratBit!
    Комментировать посты могут только пользователи прошедшие не сложную регистрацию
    Показать сообщения:    

    Красавица и воры через торрент
    Скачать бесплатно Красавица и воры
    Красавица и воры скачать торрент
    Красавица и воры смотреть онлайн
    Cкачать фильм Красавица и воры бесплатно
    Красавица и воры скачать торрент в хорошем качестве
    Красавица и воры смотреть онлайн бесплатно в хорошем качестве


    Вы не можете начинать темы
    Вы не можете отвечать на сообщения
    Вы не можете редактировать свои сообщения
    Вы не можете удалять свои сообщения
    Вы не можете голосовать в опросах
    Вы не можете прикреплять файлы к сообщениям
    Вы можете скачивать файлы