Ссылка на приватное зеркало всего за 1$. Внимание количество ограничено!!!

iTunes

1+1

iTunes

мы

MV0

1

WEB-DLRip

Джокер

Пифагор

Ведьмак / The Witcher сериал

iTunes

ПШазам

iTunes

Оно 2

iTunes

30
pack

Вам бонус

ВАЖНО

!!Акция!!

Alien_RageХит недели

RePack

Resident Evil 21

ИГРА 18+

pack

RePack

jed

!!Акция!!

Alien_Rage

RePack

fifa19

RePack

Assassins Creed: Odyssey

RePack

NEED FOR SPEED™ PAYBACK

4 сезон

9 сезон

Бесстыжие 9 сезон

Все сериалы

все сериалы на PB.wtf

RePack

FAR CRY 5
  

Чудотворцы / Miracle Workers / Сезон: 2 / Серии: 1-2 из 7 (Райан Кейс, Морис Мэрэбл, Йорма Такконе) [2020, Комедия, WEB-DLRip] MVO [NewStudio] pb.wtf

Чудотворцы через торрент pb.wtf

Раздают: 1 [ 0 KB/s ] Качают: 1 [ 0 KB/s ]
Размер: 613 MB | Добавлен: 6 д. назад | Торрент скачан:2 раза
Скачать  

15-02-2020 10:37 Чудотворцы Скачать торрент  

Чудотворцы | Miracle Workers Год выпуска: 2020
Страна: США
Жанр: Комедия
Продолжительность: ~ 00:25:00
Перевод: Профессиональный (многоголосый закадровый) | NewStudio
Субтитры: Русские, английские

Режиссёр: Райан Кейс, Морис Мэрэбл, Йорма Такконе

В ролях: Стив Бушеми, Дэниэл Рэдклифф, Джеральдин Висванатхан, Каран Сони, Саша Компере, Джон Басс, Париза Джонстон, Леандер Сулейман

Описание: Небесная канцелярия Бога — масштабный офис с множеством отделов и сотрудников, работающих в атмосфере цейтнота и многозадачности. Есть даже HR или же напоминающий службу технической поддержки отдел обработки молитв. Именно его служащие, ангелы Элиза и Крэйг, берутся за спасение Земли, когда приунывший Господь вдруг решает ее погубить. Теперь у ангелов есть две недели, чтобы соединить несоединимое — двух одиноких людей в пару — и доказать, что человечество вовсе не безнадежно и достойно существования.

rating

Качество: WEB-DLRip
Формат: AVI

Видео: XviD, 720x400 (16:9), 23.976 кадров/сек, ~1600 Кбит/сек
Аудио 1: AC3, 48,0 kHz, 2 ch, 192 kbps - Rus
Аудио 2: AC3, 48,0 kHz, 2 ch, 192 kbps - Eng
скриншот  скриншот  скриншот  скриншот  

Общее
Полное имя : D:\Miracle Workers (Season 2) WEB-DLRip\Miracle.Workers.S02E01.WEB-DLRip.RGzsRutracker.[Wentworth_Miller].avi
Формат : AVI
Формат/Информация : Audio Video Interleave
Размер файла : 307 Мбайт
Продолжительность : 21 м. 27 с.
Общий поток : 1998 Кбит/сек
Программа кодирования : VirtualDubMod 1.5.10.3 | www.virtualdub-fr.org || (build 2550/release)
Библиотека кодирования : VirtualDubMod build 2550/release

Видео
Идентификатор : 0
Формат : MPEG-4 Visual
Профиль формата : Advanced Simple@L5
Настройки формата : BVOP1
Параметр BVOP формата : 1
Параметр QPel формата : Нет
Параметр GMC формата : Без точки перехода
Параметр матрицы формата : Default (MPEG)
Идентификатор кодека : XVID
Идентификатор кодека/Подсказка : XviD
Продолжительность : 21 м. 27 с.
Битрейт : 1600 Кбит/сек
Ширина : 720 пикселей
Высота : 400 пикселей
Соотношение сторон : 16:9
Частота кадров : 23,976 (24000/1001) кадра/сек
Цветовое пространство : YUV
Субдискретизация насыщенности : 4:2:0
Битовая глубина : 8 бит
Тип развёртки : Прогрессивная
Метод сжатия : С потерями
Бит/(Пиксели*Кадры) : 0.232
Размер потока : 245 Мбайт (80%)
Библиотека кодирования : XviD 67

Аудио #1
Идентификатор : 1
Формат : AC-3
Формат/Информация : Audio Coding 3
Коммерческое название : Dolby Digital
Идентификатор кодека : 2000
Продолжительность : 21 м. 27 с.
Вид битрейта : Постоянный
Битрейт : 192 Кбит/сек
Каналы : 2 канала
ChannelLayout : L R
Частота : 48,0 КГц
Частота кадров : 31,250 кадров/сек (1536 SPF)
Метод сжатия : С потерями
Размер потока : 29,5 Мбайт (10%)
Выравнивание : Разделение по промежуткам
Продолжительность промежутка : 42 мс. (1,00 видеокадр)
Время предзагрузки промежутка : 500 мс.
ServiceKind/String : Complete Main

Аудио #2
Идентификатор : 2
Формат : AC-3
Формат/Информация : Audio Coding 3
Коммерческое название : Dolby Digital
Идентификатор кодека : 2000
Продолжительность : 21 м. 27 с.
Вид битрейта : Постоянный
Битрейт : 192 Кбит/сек
Каналы : 2 канала
ChannelLayout : L R
Частота : 48,0 КГц
Частота кадров : 31,250 кадров/сек (1536 SPF)
Метод сжатия : С потерями
Размер потока : 29,5 Мбайт (10%)
Выравнивание : Разделение по промежуткам
Продолжительность промежутка : 42 мс. (1,00 видеокадр)
Время предзагрузки промежутка : 500 мс.
ServiceKind/String : Complete Main

Внимание! Раздача ведётся путём добавления новых серий; при каждом добавлении создаётся новый торрент. Чтобы начать докачку новой серии, пользователям необходимо сделать следующее:
(1) остановить скачивание,
(2) удалить старый торрент у себя из клиента (старые серии удалять не надо),
(3) скачать новый торрент и запустить его у себя в клиенте вместо старого, при этом указать клиенту путь в старую папку куда и должно происходить скачивание новых серий.

Ваш клиент при этом должен произвести хеширование (проверку) старой папки (если не производит сам - помогите ему сделать это), и будет докачивать только те серии которых у вас ещё нет. Старые серии при этом не удаляются, а продолжают раздаваться!

Eсли вы уже удалили старые серии, то предотвратить повторную закачку старых серий можно, отжав галочку в соответствующих местах при запуске нового торрента. По возможности, желательно не удалять старые серии как можно дольше чтобы релизёр не столько продолжал раздавать старые серии, а смог сконцентрироваться на новых.
pb.wtf



Скачать Чудотворцы через торрент http://pic1.kartinco.top/images/12/9qt8k.jpg Скачать фильм Чудотворцы через торрент бесплантно в хорошем качестве Описание: Небесная канцелярия Бога — масштабный офис с множеством отделов и сотрудников, работающих в атмосфере цейтнота и многозадачности. ... 10 10 2
Торрент: Зарегистрирован [2020-02-15 10:37] · скачан: 2 раз
Статус: √ проверено
Размер: 613 MB
Как cкачать? Как скачать Чудотворцы через торрент | qTorrent

% Раздел Тема Автор DL S | L
Зарубежные сериалы [ 4.51 GB ] Чудотворцы / Miracle Workers / Сезон: 2 / Серии 1-3 из 7 [2020 WEB-DL 1080p] [MVO] killermax2013 Скачать
1 | 2
Зарубежные сериалы [ 1.76 GB ] Чудотворцы / Miracle Workers / Сезон: 2 / Серии: 1-2 из 7 [2020 WEB-DL 1080p] MVO [NewStudio] bober100 Скачать
2 | 0
Зарубежные сериалы [ 2.11 GB ] Чудотворцы / Miracle Workers / Сезон: 2 / Серии 1-3 из 7 [2020 WEB-DL 720p] [MVO] killermax2013 Скачать
1 | 2
Зарубежные сериалы [ 453 MB ] Чудотворцы / Miracle Workers / Сезон: 2 / Серии 1- из 7 [2020 HDTVRip 720p] [MVO] killermax2013 Скачать
1 | 0
T Зарубежные сериалы [ 505 MB ] Чудотворцы / Miracle Workers / Сезон: 2 / Серии 1-2 из 7 [2020 WEBRip] [MVO] killermax2013 Скачать
2 | 1

28-11-2019 20:33  

Отключить всю рекламу на сайте

    Дорогой пользователь! Огромная просьба, поблагодарите релизера, оцените раздачу и оставьте свои комментарий, если Вы скачали Чудотворцы через торрент бесплатно! Внесите свою лепту в развитие PiratBit!
    Комментировать посты могут только пользователи прошедшие не сложную регистрацию
    Показать сообщения:    

    Чудотворцы через торрент
    Скачать бесплатно Чудотворцы
    Чудотворцы скачать торрент
    Чудотворцы смотреть онлайн
    Cкачать фильм Чудотворцы бесплатно
    Чудотворцы скачать торрент в хорошем качестве
    Чудотворцы смотреть онлайн бесплатно в хорошем качестве


    Вы не можете начинать темы
    Вы не можете отвечать на сообщения
    Вы не можете редактировать свои сообщения
    Вы не можете удалять свои сообщения
    Вы не можете голосовать в опросах
    Вы не можете прикреплять файлы к сообщениям
    Вы можете скачивать файлы