Ссылка на приватное зеркало нашего сайта всего за 1$. Внимание количество ограничено!!!

2 сезон

iTunes

1 сезон

1

2 сезон

2 сезон

iTunes

1 сезон

RePack

30

Ultimate

ВАЖНО

ИГРА 18+

pack

RePack

MK11
pack

Забери бонус

RePack

jed

!!Акция!!

Alien_Rage

RePack

fifa19

RePack

Assassins Creed: Odyssey

RePack

NEED FOR SPEED™ PAYBACK

4 сезон

9 сезон

Бесстыжие 9 сезон

Все сериалы

все сериалы на PB.wtf

RePack

FAR CRY 5
  

Идеальный пациент / The Perfect Patient / Quick (Микаэль Хофстрём) [2019, Триллер, BD Remux 1080p] DUB [iTunes] pb.wtf

Идеальный пациент через торрент pb.wtf

Размер: 33.65 GB | Добавлен: 9 мес. назад | Торрент скачан:54 раза
Скачать  

15-02-2020 13:57 Идеальный пациент Скачать торрент  

Идеальный пациент | The Perfect Patient | Quick
Год выпуска: 2019
Страна: Швеция
Студия: Brain Academy, Film i Väst, Nordisk Film
Жанр: Триллер
Продолжительность: 02:11:21
Перевод: Дублированный | iTunes
Субтитры: отсутствуют

Режиссер: Микаэль Хофстрём

rating

В ролях: Йонас Карлссон, Давид Денсик, Альба Аугуст, Сюзанн Рейтер, Линда Ульвеус, Кристофер Вагелин, Това Магнуссон-Норлинг, Даг Малмберг, Магнус Роосманн, Бьёрн Бенгтссон

Описание: Его изощренному уму позавидовал бы сам Ганнибал Лектер. Десятки жертв по всей стране и никаких улик. Единственный свидетель - он сам, сдавшийся на милость правосудия. Что это, муки совести или очередной ход в его чудовищной игре? В клетку со зверем заходит журналист.

Качество: BD Remux 1080p
Формат: MKV

Видео: MPEG-4 AVC, 1920x1080, 32.7 Mbit/s, 24 fps
Аудио #01: 48 kHz, AC3, 5.1, 384 Kbps | iTunes | RUS |
Аудио #02: 48 kHz, DTS-HD MA, 5.1, 3620 Kbps | Оригинал | SWE |
скриншот  скриншот  скриншот  скриншот  скриншот  

General
Unique ID : 330627769019213255894365330220692309026 (0xF8BC97928E21C461D589C0662BAC8422)
Complete name : E:Video111The.Perfect.Patient.AKA.Quick.2019.BDREMUX.1080p.seleZen.mkv
Format : Matroska
Format version : Version 4
File size : 33.6 GiB
Duration : 2 h 11 min
Overall bit rate mode : Variable
Overall bit rate : 36.7 Mb/s
Movie name : The Perfect Patient / Quick (2019) from селезень
Encoded date : UTC 2020-02-15 13:40:38
Writing application : mkvmerge v40.0.0 ('Old Town Road + Pony') 64-bit
Writing library : libebml v1.3.9 + libmatroska v1.5.2

Video
ID : 1
Format : AVC
Format/Info : Advanced Video Codec
Format profile : High@L4.1
Format settings : CABAC / 4 Ref Frames
Format settings, CABAC : Yes
Format settings, Reference : 4 frames
Format settings, GOP : M=3, N=12
Codec ID : V_MPEG4/ISO/AVC
Duration : 2 h 11 min
Bit rate mode : Constant
Bit rate : 32.7 Mb/s
Nominal bit rate : 35.0 Mb/s
Width : 1 920 pixels
Height : 1 080 pixels
Display aspect ratio : 16:9
Frame rate mode : Constant
Frame rate : 24.000 FPS
Standard : NTSC
Color space : YUV
Chroma subsampling : 4:2:0
Bit depth : 8 bits
Scan type : Progressive
Bits/(Pixel*Frame) : 0.656
Stream size : 30.0 GiB (89%)
Language : Swedish
Default : Yes
Forced : No
Color range : Limited
Color primaries : BT.709
Transfer characteristics : BT.709
Matrix coefficients : BT.709

Audio #1
ID : 2
Format : AC-3
Format/Info : Audio Coding 3
Commercial name : Dolby Digital
Codec ID : A_AC3
Duration : 2 h 11 min
Bit rate mode : Constant
Bit rate : 384 kb/s
Channel(s) : 6 channels
Channel layout : L R C LFE Ls Rs
Sampling rate : 48.0 kHz
Frame rate : 31.250 FPS (1536 SPF)
Compression mode : Lossy
Stream size : 361 MiB (1%)
Title : iTunes
Language : Russian
Service kind : Complete Main
Default : Yes
Forced : Yes

Audio #2
ID : 3
Format : DTS XLL
Format/Info : Digital Theater Systems
Commercial name : DTS-HD Master Audio
Codec ID : A_DTS
Duration : 2 h 11 min
Bit rate mode : Variable
Bit rate : 3 620 kb/s
Channel(s) : 6 channels
Channel layout : C L R Ls Rs LFE
Sampling rate : 48.0 kHz
Frame rate : 93.750 FPS (512 SPF)
Bit depth : 24 bits
Compression mode : Lossless
Stream size : 3.32 GiB (10%)
Title : Original
Language : Swedish
Default : No
Forced : No

Menu
00:00:00.000 : sv:Глава 01
00:10:20.292 : sv:Глава 02
00:20:41.875 : sv:Глава 03
00:31:10.958 : sv:Глава 04
00:40:48.333 : sv:Глава 05
00:51:13.292 : sv:Глава 06
01:01:44.667 : sv:Глава 07
01:12:32.417 : sv:Глава 08
01:23:08.500 : sv:Глава 09
01:32:45.667 : sv:Глава 10
01:43:23.417 : sv:Глава 11
01:53:34.292 : sv:Глава 12
02:02:59.625 : sv:Глава 13

pb.wtf



Скачать Идеальный пациент через торрент https://img15.lostpic.net/2020/02/15/90120faf0b0d49811997afc6e0887e62.jpg Скачать фильм Идеальный пациент через торрент бесплантно в хорошем качестве Описание: Его изощренному уму позавидовал бы сам Ганнибал Лектер. Десятки жертв по всей стране и никаких улик. Единственный свидетель - он ... 8.3 10 4
Торрент: Зарегистрирован [2020-02-15 13:57] · скачан: 54 раз
Статус: √ проверено
Размер: 33.65 GB
Как cкачать? Как скачать Идеальный пациент через торрент | qTorrent

% Раздел Тема Автор DL S | L
Фильмы [HD 720p, 1080p] (Хороший звук DUB, MVO) [ 11.36 GB ] Идеальный пациент / The Perfect Patient / Quick [2019 BDRip 1080p] bober100 Скачать
2 | 0
Фильмы (WEB-DL 720p, 1080p) [ 4.54 GB ] Идеальный пациент / The Perfect Patient / Quick [2019 WEB-DL 1080p] bober100 Скачать
2 | 0
Фильмы [HD 720p, 1080p] (Хороший звук DUB, MVO) [ 7.25 GB ] Идеальный пациент / The Perfect Patient / Quick [2019 BDRip 720p] bober100 Скачать
2 | 0
Фильмы 2019-2020 [DVDrip, WEB-DLRip, HDrip] (DUB, MVO) [ 2.18 GB ] Идеальный пациент / The Perfect Patient / Quick [2019 BDRip] bober100 Скачать
2 | 0
Фильмы 2019-2020 [DVDrip, WEB-DLRip, HDrip] (DUB, MVO) [ 1.46 GB ] Идеальный пациент / The Perfect Patient / Quick [2019 BDRip] bober100 Скачать
1 | 0

28-11-2019 20:33  

Отключить всю рекламу на сайте

    Дорогой пользователь! Огромная просьба, поблагодарите релизера, оцените раздачу и оставьте свои комментарий, если Вы скачали Идеальный пациент через торрент бесплатно! Внесите свою лепту в развитие PiratBit!
    Комментировать посты могут только пользователи прошедшие не сложную регистрацию
    Показать сообщения:    

    Идеальный пациент через торрент
    Скачать бесплатно Идеальный пациент
    Идеальный пациент скачать торрент
    Идеальный пациент смотреть онлайн
    Cкачать фильм Идеальный пациент бесплатно
    Идеальный пациент скачать торрент в хорошем качестве
    Идеальный пациент смотреть онлайн бесплатно в хорошем качестве


    Вы не можете начинать темы
    Вы не можете отвечать на сообщения
    Вы не можете редактировать свои сообщения
    Вы не можете удалять свои сообщения
    Вы не можете голосовать в опросах
    Вы не можете прикреплять файлы к сообщениям
    Вы можете скачивать файлы