2 сезон

iTunes

MVO

1

2 сезон

iTunes

iTunes

1 сезон

RePack

30

Ultimate

ВАЖНО

ИГРА 18+

pack

RePack

MK11
pack

Легкие деньги

RePack

jed

RePack

fifa19

RePack

RDR2

RePack

NEED FOR SPEED™ PAYBACK

4 сезон

9 сезон

Бесстыжие 9 сезон

Все сериалы

все сериалы на PB.wtf

RePack

FAR CRY 5

Anonymous, добрый вечер, мы не успеваем собрать деньги на оплату серверов за декабрь и январь, помогите нам пожалуйста в это трудное время. В качестве благодарности мы отключим Вам всю рекламу на сайте (укажите свой ник в строку Ваше имя)!

×
  
Magnet ссылка

Джанго освобожденный / Django Unchained (Квентин Тарантино) [2012 г., вестерн, боевик, драма, комедия, BDRip - HEVC 1080p 10bit 60 FPS, Дубляж] pb.wtf

Джанго освобожденный через торрент pb.wtf

Размер: 5.38 GB | Добавлен: 11 мес. назад | Торрент скачан:158 раз
Скачать  

15-02-2020 15:51 Джанго освобожденный Скачать торрент  

Джанго освобожденный / Django Unchained
Год выпуска: 2012
Страна: США
Жанр: вестерн, боевик, драма, комедия, ...
Продолжительность: 02:45:23
Перевод: Дубляж
Тип релиза: Пиратка
Субтитры: Russian

Режиссер: Квентин Тарантино

Бюджет: $100 000 000
Премьера в мире: 11 декабря 2012

rating

В ролях: Джейми Фокс, Кристоф Вальц, Леонардо ДиКаприо, Керри Вашингтон, Сэмюэл Л. Джексон, Уолтон Гоггинс, Деннис Кристофер, Джеймс Римар, Дон Джонсон, Лора Кайюэтт

Описание: Эксцентричный охотник за головами, также известный как Дантист, промышляет отстрелом самых опасных преступников. Работенка пыльная, и без надежного помощника ему не обойтись. Но как найти такого и желательно не очень дорогого? Освобождённый им раб по имени Джанго — прекрасная кандидатура. Правда, у нового помощника свои мотивы — кое с чем надо сперва разобраться.

Качество: BDRip 1080p
Формат: WMV
Видео кодек: H.265
Аудио кодек: AC3
Видео: V_MPEGH/ISO/HEVC;1920x800 (2.40:1);4002 Kbps;59,940 fps;0,043 bpp
Аудио#1: русский;AC3;640 Kbps;CBR;6 ch

Релиз от: DD2D3
скриншот  скриншот  скриншот  

скриншот  скриншот  скриншот  

скриншот  скриншот  скриншот  

General
Unique ID : 205320854008382474643821806073746119431 (0x9A775BAC0F94953F8AA9EE1FBE515B07)
Complete name : D:\Джанго освобожденный - Django Unchained (2012) BDRip - HEVC 1080p 10bit 60 FPS.mkv
Format : Matroska
Format version : Version 4
File size : 5.38 GiB
Duration : 2 h 45 min
Overall bit rate : 4 660 kb/s
Movie name : Rip by DD2D3
Encoded date : UTC 2020-02-15 15:08:18
Writing application : mkvmerge v10.0.0 ('To Drown In You') 32bit
Writing library : libebml v1.3.4 + libmatroska v1.4.5
Attachments : poster

Video
ID : 1
Format : HEVC
Format/Info : High Efficiency Video Coding
Format profile : Main 10@L4.1@Main
Codec ID : V_MPEGH/ISO/HEVC
Duration : 2 h 45 min
Bit rate : 4 002 kb/s
Width : 1 920 pixels
Height : 800 pixels
Display aspect ratio : 2.40:1
Frame rate mode : Constant
Frame rate : 59.940 (60000/1001) FPS
Color space : YUV
Chroma subsampling : 4:2:0
Bit depth : 10 bits
Bits/(Pixel*Frame) : 0.043
Stream size : 4.62 GiB (86%)
Writing library : x265 2.3+33-0b7d54dbb71a87a0:[Windows][MSVC 1800][64 bit] 10bit: KG7x [x265.ru]
Encoding settings : cpuid=1173503 / frame-threads=2 / numa-pools=4 / wpp / no-pmode / no-pme / no-psnr / no-ssim / log-level=2 / input-csp=1 / input-res=1920x800 / interlace=0 / total-frames=594781 / level-idc=41 / high-tier=1 / uhd-bd=0 / ref=3 / no-allow-non-conformance / no-repeat-headers / annexb / no-aud / no-hrd / info / hash=0 / no-temporal-layers / open-gop / min-keyint=25 / keyint=250 / bframes=4 / b-adapt=2 / b-pyramid / bframe-bias=0 / rc-lookahead=20 / lookahead-slices=5 / scenecut=40 / no-intra-refresh / ctu=64 / min-cu-size=8 / no-rect / no-amp / max-tu-size=32 / tu-inter-depth=1 / tu-intra-depth=1 / limit-tu=0 / rdoq-level=0 / dynamic-rd=0.00 / no-ssim-rd / signhide / no-tskip / nr-intra=0 / nr-inter=0 / no-constrained-intra / strong-intra-smoothing / max-merge=2 / limit-refs=3 / no-limit-modes / me=1 / subme=2 / merange=57 / temporal-mvp / weightp / no-weightb / no-analyze-src-pics / deblock=0:0 / no-sao / no-sao-non-deblock / rd=3 / no-early-skip / no-rskip / no-fast-intra / no-tskip-fast / no-cu-lossless / no-b-intra / rdpenalty=0 / psy-rd=4.00 / psy-rdoq=0.00 / no-rd-refine / analysis-mode=0 / no-lossless / cbqpoffs=0 / crqpoffs=0 / rc=abr / bitrate=4000 / qcomp=0.60 / qpstep=1 / stats-write=0 / stats-read=2 / cplxblur=20.0 / qblur=0.5 / ipratio=1.10 / pbratio=1.00 / aq-mode=0 / aq-strength=0.00 / no-cutree / zone-count=0 / no-strict-cbr / qg-size=64 / rc-grain / qpmax=69 / qpmin=0 / sar=1 / overscan=0 / videoformat=5 / range=0 / colorprim=2 / transfer=2 / colormatrix=2 / chromaloc=0 / display-window=0 / max-cll=0,0 / min-luma=0 / max-luma=1023 / log2-max-poc-lsb=8 / vui-timing-info / vui-hrd-info / slices=1 / opt-qp-pps / opt-ref-list-length-pps / no-multi-pass-opt-rps / scenecut-bias=0.05 / no-opt-cu-delta-qp / no-aq-motion / no-hdr / no-hdr-opt / refine-level=5 / no-limit-sao
Default : Yes
Forced : No

Audio
ID : 2
Format : AC-3
Format/Info : Audio Coding 3
Commercial name : Dolby Digital
Codec ID : A_AC3
Duration : 2 h 45 min
Bit rate mode : Constant
Bit rate : 640 kb/s
Channel(s) : 6 channels
Channel layout : L R C LFE Ls Rs
Sampling rate : 48.0 kHz
Frame rate : 31.250 FPS (1536 SPF)
Compression mode : Lossy
Stream size : 757 MiB (14%)
Language : Russian
Service kind : Complete Main
Default : Yes
Forced : No

Text
ID : 3
Format : PGS
Muxing mode : zlib
Codec ID : S_HDMV/PGS
Codec ID/Info : Picture based subtitle format used on BDs/HD-DVDs
Duration : 2 h 44 min
Bit rate : 13.6 kb/s
Count of elements : 3916
Stream size : 16.0 MiB (0%)
Language : Russian
Default : Yes
Forced : No

pb.wtf



Скачать Джанго освобожденный через торрент https://funkyimg.com/i/32i88.jpg Скачать фильм Джанго освобожденный через торрент бесплантно в хорошем качестве Описание: Эксцентричный охотник за головами, также известный как Дантист, промышляет отстрелом самых опасных преступников. Работенка ... 9.9 10 7
Торрент: Зарегистрирован [2020-02-15 15:51] · скачан: 158 раз
Статус: √ проверено
Размер: 5.38 GB
Как cкачать? Как скачать Джанго освобожденный через торрент | UTorrent

% Раздел Тема Автор DL S | L
Фильмы с авторской озвучкой [ 4.67 GB ] Джанго освобожденный / Django Unchained [2012 BDRip 1080p ] 2x[AVO] killermax2013 Скачать
1 | 0
Фильмы (BDRip, HDrip-AVC) (48-60 fps) [ 3.95 GB ] Джанго освобожденный / Django Unchained [2012 BDRip-AVC 60fps Dub] от R.G. HD-Films Tiberiumsun69 Скачать
21 | 3
Фильмы [HD 720p, 1080p] (Хороший звук DUB, MVO) [ 10.97 GB ] Джанго освобожденный / Django Unchained [2012 BDRip-HEVC 1080p ] DUB [] bober100 Скачать
2 | 0
Фильмы с авторской озвучкой [ 4.19 GB ] Джанго освобожденный / Django Unchained [2012 HDRip] 5x[AVO] killermax2013 Скачать
1 | 0
Фильмы 2012 [ 1.46 GB ] Джанго освобожденный / Django Unchained [2012 HDRip лицензия] Seedtank Скачать
1 | 0
Фильмы с авторской озвучкой [ 2.18 GB ] Джанго освобожденный / Django Unchained [2012 BDRip] [AVO] killermax2013 Скачать
2 | 0
Фильмы (Blu-ray, BD-Remux, HDDVD) [ 102.08 GB ] Джанго освобожденный / Django Unchained [2012 BDRemux] [1080p]+7x[AVO]+8x[VO] + [Sub ruseng] killermax2013 Скачать
1 | 0

28-11-2019 20:33  

Отключить всю рекламу на сайте

    Дорогой пользователь! Огромная просьба, поблагодарите релизера, оцените раздачу и оставьте свои комментарий, если Вы скачали Джанго освобожденный через торрент бесплатно! Внесите свою лепту в развитие PiratBit!
    Комментировать посты могут только пользователи прошедшие не сложную регистрацию
    Показать сообщения:    

    Джанго освобожденный через торрент
    Скачать бесплатно Джанго освобожденный
    Джанго освобожденный скачать торрент
    Джанго освобожденный смотреть онлайн
    Cкачать фильм Джанго освобожденный бесплатно
    Джанго освобожденный скачать торрент в хорошем качестве
    Джанго освобожденный смотреть онлайн бесплатно в хорошем качестве


    Вы не можете начинать темы
    Вы не можете отвечать на сообщения
    Вы не можете редактировать свои сообщения
    Вы не можете удалять свои сообщения
    Вы не можете голосовать в опросах
    Вы не можете прикреплять файлы к сообщениям
    Вы можете скачивать файлы