Ссылка на приватное зеркало нашего сайта всего за 1$. Внимание количество ограничено!!!

2 сезон

iTunes

1 сезон

1

iTunes

iTunes

iTunes

1 сезон

RePack

30

ИГРА 18+

pack

ВАЖНО

!!Акция!!

Alien_RageХит недели

RePack

MK11
pack

Забери бонус

RePack

jed

!!Акция!!

Alien_Rage

RePack

fifa19

RePack

Assassins Creed: Odyssey

RePack

NEED FOR SPEED™ PAYBACK

4 сезон

9 сезон

Бесстыжие 9 сезон

Все сериалы

все сериалы на PB.wtf

RePack

FAR CRY 5
  

Тень дракона / Серии: 1-4 из 4 (Сергей Краснов) [2020, Мелодрама, WEB-DLRip] pb.wtf

Тень дракона через торрент pb.wtf

Размер: 2.25 GB | Добавлен: 5 мес. 10 д. назад | Торрент скачан:11 раз
Скачать  

15-02-2020 20:29 Тень дракона Скачать торрент  

Тень дракона Год выпуска: 2020
Страна: Россия
Жанр: Мелодрама
Продолжительность: ~ 00:44:00 серия
Субтитры: отсутствуют

Режиссер: Сергей Краснов



В ролях: Анна Тараторкина, Константин Стрельников, Алексей Анищенко, Эмилия Спивак, Юлия Кокрятская, Александр Горелов, Ольга Науменко, Максим Иванов (II), Александр Ревенко, Марина Волкова, Сергей Краснов, Любовь Селютина, Элеонора Шашкова, Андрей Гусев, Андрей Морозов

Описание: Марина и Виктор – супружеская пара, которой для полного счастья не хватает ребенка. Решение усыновить детдомовского мальчика Алешу кажется естественным выходом из этой ситуации. Марина – психолог, Алеша – ее пациент. Марина уверена, что молчание Алеши, которое все принимают за немоту, – результат тяжелой психологической травмы. Надо только узнать, какой именно. Страшная авария, в которую попадает Марина, переворачивает жизнь вверх дном. Любимый муж ушел, Алешу увез на Урал родной отец, жизнь потеряла всякий смысл. Но надежда вылечить Алешу заставляет Марину поехать на Урал. Здесь и открываются причины болезни мальчика. Он – свидетель убийства собственной матери. Узнав страшную тайну, Марина, как и Алеша, становится жертвой опасных преследователей.

Качество: WEB-DLRip
Формат: AVI

Видео: XviD, ~ 1600 Кбит/с, 720x400
Аудио: AC3, 2 ch, 192 Кбит/с
скриншот  скриншот  скриншот  скриншот  скриншот  

General
Complete name : H:fiiles xТень дракона.2019.WEB-DLRip.Files-x1. Тень дракона.2019.WEB-DLRip.Files-x.avi
Format : AVI
Format/Info : Audio Video Interleave
File size : 567 MiB
Duration : 44mn 0s
Overall bit rate : 1 802 Kbps
Writing application : VirtualDubMod 1.5.10.3 | www.virtualdub-fr.org || (build 2550/release)
Writing library : VirtualDubMod build 2550/release

Video
ID : 0
Format : MPEG-4 Visual
Format profile : Advanced Simple@L5
Format settings, BVOP : 1
Format settings, QPel : No
Format settings, GMC : No warppoints
Format settings, Matrix : Custom
Codec ID : XVID
Codec ID/Hint : XviD
Duration : 44mn 0s
Bit rate : 1 600 Kbps
Width : 720 pixels
Height : 400 pixels
Display aspect ratio : 16:9
Frame rate : 25.000 fps
Color space : YUV
Chroma subsampling : 4:2:0
Bit depth : 8 bits
Scan type : Progressive
Compression mode : Lossy
Bits/(Pixel*Frame) : 0.222
Stream size : 504 MiB (89%)
Writing library : XviD 73

Audio
ID : 1
Format : AC-3
Format/Info : Audio Coding 3
Mode extension : CM (complete main)
Codec ID : 2000
Duration : 44mn 0s
Bit rate mode : Constant
Bit rate : 192 Kbps
Channel(s) : 2 channels
Channel positions : Front: L R
Sampling rate : 48.0 KHz
Bit depth : 16 bits
Compression mode : Lossy
Stream size : 60.4 MiB (11%)
Alignment : Split accross interleaves
Interleave, duration : 40 ms (1.00 video frame)
Interleave, preload duration : 500 ms

pb.wtf



Скачать Тень дракона через торрент https://i111.fastpic.ru/big/2020/0215/f5/fff5d6daa9cf4275682b44e337aca4f5.jpg Скачать фильм Тень дракона через торрент бесплантно в хорошем качестве Описание: Марина и Виктор – супружеская пара, которой для полного счастья не хватает ребенка. Решение усыновить детдомовского мальчика ... 10 10 5
Торрент: Зарегистрирован [2020-05-14 13:55] · скачан: 11 раз
Статус: √ проверено
Размер: 2.25 GB
Как cкачать? Как скачать Тень дракона через торрент | qTorrent

% Раздел Тема Автор DL S | L
Наши сериалы [ 3.53 GB ] Тень дракона / Серии: 1-4 из 4 [2020 Мело WEB-DL 720p] bober100 Скачать
1 | 0
Наши сериалы [ 6.71 GB ] Тень дракона / Серии: 1-4 из 4 [2020 Мело WEB-DL 1080p] bober100 Скачать
1 | 0
Наши сериалы [ 2.24 GB ] Тень дракона / Серии: 1-4 из 4 [2020 Мело WEB-DLRip-AVC] bober100 Скачать
1 | 0
Наши сериалы [ 2.06 GB ] Тень дракона / Серии: 1-4 из 4 [2020 SATRip-AVC] aleksan55 Скачать
1 | 0

28-11-2019 20:33  

Отключить всю рекламу на сайте

    Дорогой пользователь! Огромная просьба, поблагодарите релизера, оцените раздачу и оставьте свои комментарий, если Вы скачали Тень дракона через торрент бесплатно! Внесите свою лепту в развитие PiratBit!
    Комментировать посты могут только пользователи прошедшие не сложную регистрацию
    Показать сообщения:    

    Тень дракона через торрент
    Скачать бесплатно Тень дракона
    Тень дракона скачать торрент
    Тень дракона смотреть онлайн
    Cкачать фильм Тень дракона бесплатно
    Тень дракона скачать торрент в хорошем качестве
    Тень дракона смотреть онлайн бесплатно в хорошем качестве


    Вы не можете начинать темы
    Вы не можете отвечать на сообщения
    Вы не можете редактировать свои сообщения
    Вы не можете удалять свои сообщения
    Вы не можете голосовать в опросах
    Вы не можете прикреплять файлы к сообщениям
    Вы можете скачивать файлы