Всегда рабочее зеркало без VPN и Proxy просто перед .vidak.icu напиши любое слово или цифру, Пример http://nfix.vidak.icu

Лицензия

MVO

1 сезон

1

1 сезон

iTunes

1 сезон

13

1 сезон

Deluxe

pack

Рекомендуем

Repack

30

ВАЖНО

RePack

MK11

RePack

jed

RePack

fifa19

RePack

RDR2

RePack

NEED FOR SPEED™ PAYBACK

Кинопоиск HD

6 сезон

 Острые козырьки 6 сезон

Все сериалы

все сериалы на PB.wtf

RePack

FAR CRY 5
  
Magnet ссылка

Достать ножи / Knives Out (Райан Джонсон ) [2019, детектив, комедия, драма, UHD BDRip 2160p] MVO [HDRezka Studio] pb.wtf

Достать ножи через торрент pb.wtf

Размер: 31.31 GB | Добавлен: 2 года 5 мес. назад | Торрент скачан:133 раза
Смотреть онлайн Достать ножи | Скачать    Ребята, помогите собрать деньги на оплату серверов!!!

16-02-2020 02:20 Достать ножи Скачать торрент  

Достать ножи / Knives Out««У каждого свой мотив»»

Год выпуска: 2019
Страна: США
Жанр: детектив, комедия, драма, криминал
Продолжительность: 02:10:13
Перевод: Профессиональный многоголосый | HDRezka Studio
Субтитры: Русские (Forced, full), английские

Режиссер: Райан Джонсон
В ролях:

Дэниэл Крэйг (Benoit Blanc), Ана де Армас (Marta Cabrera), Крис Эванс (Ransom Drysdale), Джейми Ли Кёртис (Linda Drysdale), Майкл Шеннон (Walt Thrombey), Дон Джонсон (Richard Drysdale), Тони Коллетт (Joni Thrombey), Лакит Стэнфилд (Lieutenant Elliott), Кристофер Пламмер (Harlan Thrombey), Кэтрин Лэнгфорд (Meg Thrombey), Джейден Мартелл (Jacob Thrombey), Рики Линдхоум (Donna Thrombey)
Описание:
На следующее утро после празднования 85-летия известного автора криминальных романов Харлана Тромби виновника торжества находят мёртвым. На лицо - явное самоубийство, но полиция по протоколу опрашивает всех присутствующих в особняке членов семьи, хотя, в этом деле больше заинтересован частный детектив Бенуа Блан. Тем же утром он получил конверт с наличными от неизвестного и заказ на расследование смерти Харлана. Не нужно быть опытным следователем, чтобы понять, что все приукрашивают свои отношения с почившим главой семейства, но Блану достаётся настоящий подарок - медсестра покойного, которая физически не выносит ложь.
Рейтинг:

MPAA: PG-13 - Детям до 13 лет просмотр не желателен
Качество: UHD BDRip 2160p
Формат: MKV
Видео: HEVC HDR, 33.3 Mбит/с, 3840x2076 , 23.976 Кадр/с, 10 Бит
Аудио: 48 kHz, AC3, 5.1, 448 Kbps | HDRezka Studio | RUS |
Аудио: 48 kHz, AC3, 5.1, 640 Kbps | Оригинал | ENG |
Навигация по главам: Есть

Общее
Уникальный идентификатор : 252222583972751109059109517592243043890 (0xBDC04D7E8F0FB90EA4E79992CB797E32)
Полное имя : G:\Knives.Out.2019.UHD.BDRip.x265.2160p.HDR.10.bit.Master5.mkv
Формат : Matroska
Версия формата : Version 4
Размер файла : 31,3 Гбайт
Продолжительность : 2 ч. 10 м.
Общий поток : 34,4 Мбит/сек
Название фильма : Knives.Out.2019.UHD.BDRip.x265.2160p.HDR.10.bit.Master5
Дата кодирования : UTC 2020-02-15 14:00:45
Программа кодирования : mkvmerge v7.9.0 ('Birds') 64bit
Библиотека кодирования : libebml v1.3.1 + libmatroska v1.4.2

Видео
Идентификатор : 1
Формат : HEVC
Формат/Информация : High Efficiency Video Coding
Коммерческое название : HDR10
Профиль формата : Main [email protected]@High
Идентификатор кодека : V_MPEGH/ISO/HEVC
Продолжительность : 2 ч. 10 м.
Битрейт : 33,3 Мбит/сек
Ширина : 3840 пикселей
Высота : 2076 пикселей
Соотношение сторон : 1,85:1
Режим частоты кадров : Постоянный
Частота кадров : 23,976 (24000/1001) кадра/сек
Цветовое пространство : YUV
Субдискретизация насыщенности : 4:2:0 (Type 2)
Битовая глубина : 10 бит
Бит/(Пиксели*Кадры) : 0.174
Размер потока : 30,3 Гбайт (97%)
Заголовок : Knives.Out.2019.UHD.BDRip.x265.2160p.HDR.10.bit.Master5
Библиотека кодирования : x265 3.2+23-52135ffd9bcd:[Windows][GCC 9.2.1][64 bit] 10bit
Настройки программы : cpuid=1176575 / frame-threads=6 / numa-pools=36 / wpp / no-pmode / no-pme / no-psnr / no-ssim / log-level=2 / input-csp=1 / input-res=3840x2076 / interlace=0 / total-frames=187324 / level-idc=51 / high-tier=1 / uhd-bd=0 / ref=4 / no-allow-non-conformance / repeat-headers / annexb / aud / hrd / info / hash=0 / no-temporal-layers / no-open-gop / min-keyint=1 / keyint=24 / gop-lookahead=0 / bframes=4 / b-adapt=2 / b-pyramid / bframe-bias=0 / rc-lookahead=25 / lookahead-slices=4 / scenecut=40 / hist-scenecut=0 / radl=0 / no-splice / no-intra-refresh / ctu=64 / min-cu-size=8 / rect / no-amp / max-tu-size=32 / tu-inter-depth=1 / tu-intra-depth=1 / limit-tu=0 / rdoq-level=2 / dynamic-rd=0.00 / no-ssim-rd / signhide / no-tskip / nr-intra=0 / nr-inter=0 / no-constrained-intra / no-strong-intra-smoothing / max-merge=3 / limit-refs=3 / limit-modes / me=3 / subme=3 / merange=57 / temporal-mvp / no-frame-dup / no-hme / weightp / no-weightb / no-analyze-src-pics / deblock=-3:-3 / no-sao / no-sao-non-deblock / rd=4 / selective-sao=0 / no-early-skip / rskip / no-fast-intra / no-tskip-fast / no-cu-lossless / no-b-intra / no-splitrd-skip / rdpenalty=0 / psy-rd=2.00 / psy-rdoq=1.00 / no-rd-refine / no-lossless / cbqpoffs=0 / crqpoffs=0 / rc=crf / crf=17.0 / qcomp=0.60 / qpstep=4 / stats-write=0 / stats-read=0 / vbv-maxrate=160000 / vbv-bufsize=160000 / vbv-init=0.9 / crf-max=0.0 / crf-min=0.0 / ipratio=1.40 / pbratio=1.30 / aq-mode=1 / aq-strength=1.00 / cutree / zone-count=0 / no-strict-cbr / qg-size=32 / no-rc-grain / qpmax=69 / qpmin=0 / no-const-vbv / sar=1 / overscan=0 / videoformat=5 / range=0 / colorprim=9 / transfer=16 / colormatrix=9 / chromaloc=1 / chromaloc-top=2 / chromaloc-bottom=2 / display-window=0 / master-display=G(13250,34500)B(7500,3000)R(34000,16000)WP(15635,16450)L(10000000,1) / cll=267,89 / min-luma=0 / max-luma=1023 / log2-max-poc-lsb=8 / vui-timing-info / vui-hrd-info / slices=1 / no-opt-qp-pps / no-opt-ref-list-length-pps / no-multi-pass-opt-rps / scenecut-bias=0.05 / hist-threshold=0.01 / no-opt-cu-delta-qp / no-aq-motion / hdr / hdr-opt / no-dhdr10-opt / no-idr-recovery-sei / analysis-reuse-level=5 / scale-factor=0 / refine-intra=0 / refine-inter=0 / refine-mv=1 / refine-ctu-distortion=0 / no-limit-sao / ctu-info=0 / no-lowpass-dct / refine-analysis-type=0 / copy-pic=1 / max-ausize-factor=1.0 / no-dynamic-refine / no-single-sei / no-hevc-aq / no-svt / no-field / qp-adaptation-range=1.00 / no-scenecut-aware-qp
Default : Да
Forced : Нет
Цветовой диапазон : Limited
Основные цвета : BT.2020
Характеристики трансфера : PQ
Коэффициенты матрицы : BT.2020 non-constant
MasteringDisplay_ColorPrimaries : Display P3
MasteringDisplay_Luminance : min: 0.0001 cd/m2, max: 1000 cd/m2
MaxCLL : 267 cd/m2
MaxFALL : 89 cd/m2

Аудио #1
Идентификатор : 2
Формат : AC-3
Формат/Информация : Audio Coding 3
Коммерческое название : Dolby Digital
Идентификатор кодека : A_AC3
Продолжительность : 2 ч. 10 м.
Вид битрейта : Постоянный
Битрейт : 448 Кбит/сек
Каналы : 6 каналов
Channel layout : L R C LFE Ls Rs
Частота : 48,0 КГц
Частота кадров : 31,250 кадров/сек (1536 SPF)
Битовая глубина : 16 бит
Метод сжатия : С потерями
Размер потока : 417 Мбайт (1%)
Заголовок : MVO HDRezka Studio
Язык : Russian
ServiceKind/String : Complete Main
Default : Да
Forced : Да

Аудио #2
Идентификатор : 3
Формат : AC-3
Формат/Информация : Audio Coding 3
Коммерческое название : Dolby Digital
Идентификатор кодека : A_AC3
Продолжительность : 2 ч. 10 м.
Вид битрейта : Постоянный
Битрейт : 640 Кбит/сек
Каналы : 6 каналов
Channel layout : L R C LFE Ls Rs
Частота : 48,0 КГц
Частота кадров : 31,250 кадров/сек (1536 SPF)
Битовая глубина : 16 бит
Метод сжатия : С потерями
Размер потока : 596 Мбайт (2%)
Заголовок : Original
Язык : English
ServiceKind/String : Complete Main
Default : Нет
Forced : Нет

Текст #1
Идентификатор : 4
Формат : UTF-8
Идентификатор кодека : S_TEXT/UTF8
Идентификатор кодека/Информация : UTF-8 Plain Text
Продолжительность : 2 ч. 4 м.
Битрейт : 1 бит/сек
ElementCount : 38
Размер потока : 1,69 Кбайт (0%)
Заголовок : Forced
Язык : Russian
Default : Да
Forced : Да

Текст #2
Идентификатор : 5
Формат : UTF-8
Идентификатор кодека : S_TEXT/UTF8
Идентификатор кодека/Информация : UTF-8 Plain Text
Продолжительность : 2 ч. 4 м.
Битрейт : 126 бит/сек
ElementCount : 1841
Размер потока : 115 Кбайт (0%)
Заголовок : Full
Язык : Russian
Default : Нет
Forced : Нет

Текст #3
Идентификатор : 6
Формат : UTF-8
Идентификатор кодека : S_TEXT/UTF8
Идентификатор кодека/Информация : UTF-8 Plain Text
Продолжительность : 2 ч. 2 м.
Битрейт : 85 бит/сек
ElementCount : 2616
Размер потока : 76,2 Кбайт (0%)
Заголовок : Full
Язык : English
Default : Нет
Forced : Нет

Текст #4
Идентификатор : 7
Формат : UTF-8
Идентификатор кодека : S_TEXT/UTF8
Идентификатор кодека/Информация : UTF-8 Plain Text
Продолжительность : 2 ч. 2 м.
Битрейт : 89 бит/сек
ElementCount : 2795
Размер потока : 79,8 Кбайт (0%)
Заголовок : SDH
Язык : English
Default : Нет
Forced : Нет

Меню
00:00:00.000 : en:Chapter 1
00:05:28.036 : en:Chapter 2
00:21:23.115 : en:Chapter 3
00:31:48.698 : en:Chapter 4
00:44:30.960 : en:Chapter 5
00:49:52.364 : en:Chapter 6
00:54:53.582 : en:Chapter 7
00:58:39.766 : en:Chapter 8
01:07:09.776 : en:Chapter 9
01:12:43.943 : en:Chapter 10
01:22:30.279 : en:Chapter 11
01:28:49.741 : en:Chapter 12
01:34:44.429 : en:Chapter 13
01:40:47.458 : en:Chapter 14
01:43:43.634 : en:Chapter 15
02:01:45.131 : en:Chapter 16
pb.wtf



Скачать Достать ножи через торрент https://a.radikal.ru/a24/2002/35/a5e07b8fac31.png Скачать, смотреть онлайн Достать ножи бесплантно в хорошем качестве Описание: На следующее утро после празднования 85-летия известного автора криминальных романов Харлана Тромби виновника торжества находят ... 10 10 4
Торрент: Зарегистрирован [2020-02-16 02:20] · скачан: 133 раз
Статус: √ проверено
Размер: 31.31 GB
Как cкачать? Как скачать Достать ножи через торрент | UTorrent

% Раздел Тема Автор DL S | L
Фильмы (HD 720p, 1080p) (48-60 fps) [ 5.49 GB ] Достать ножи / Knives Out [2019 BDRip - HEVC 1080p 10 bit 60 FPS DUB AVO [М. Яроцкий ] dd2d3 Скачать
1 | 0
Фильмы [HD 720p, 1080p] (Звук Cam, VO, DVO) [ 10.03 GB ] Достать ножи / Knives Out [2019 BDRip 1080p] DVO [Кубик в Кубе] bober100 Скачать
1 | 0
Фильмы 2019-2020 [DVDrip, WEB-DLRip, HDrip] (DUB, MVO) [ 2.12 GB ] Достать ножи / Knives Out [2019 BDRip] - Twi7ter Скачать
25 | 0
Фильмы 2019-2020 [DVDrip, WEB-DLRip, HDrip] (DUB, MVO) [ 799 MB ] Достать ножи / Knives Out [2019 HDRip] bober100 Скачать
1 | 0
Фильмы 2019-2020 [DVDrip, WEB-DLRip, HDrip] (DUB, MVO) [ 1.46 GB ] Достать ножи / Knives Out [2019 BDRip] - Twi7ter Скачать
22 | 0
Ultra HD (UHD: 2K, 4K, 8K) — видео сверхвысокой чёткости [ 68.35 GB ] Достать ножи / Knives Out [2019 UHD BDRemux 2160p ] +MVO [HDrezka Studio] +AVO [М. Яроцкий ] bober100 Скачать
1 | 0
Ultra HD (UHD: 2K, 4K, 8K) — видео сверхвысокой чёткости [ 59.2 GB ] Достать ножи / Knives Out [2019 UHD BDRemux 2160p] +MVO [HDrezka Studio] +AVO [М. Яроцкий ] bober100 Скачать
1 | 0

28-11-2019 20:33  

Отключить вcю реклaмy на сайте

    Дорогой пользователь! Огромная просьба, поблагодарите релизера, оцените раздачу и оставьте свои комментарий, если Вы скачали Достать ножи через торрент бесплатно!
    Комментировать посты могут только пользователи прошедшие не сложную регистрацию
    Показать сообщения:    

    Достать ножи через торрент
    Скачать бесплатно Достать ножи
    Достать ножи скачать торрент
    Достать ножи смотреть онлайн
    Cкачать фильм Достать ножи бесплатно
    Достать ножи скачать торрент в хорошем качестве
    Достать ножи смотреть онлайн бесплатно в хорошем качестве


    Вы не можете начинать темы
    Вы не можете отвечать на сообщения
    Вы не можете редактировать свои сообщения
    Вы не можете удалять свои сообщения
    Вы не можете голосовать в опросах
    Вы не можете прикреплять файлы к сообщениям
    Вы можете скачивать файлы