2 сезон

iTunes

1 сезон

1

iTunes

iTunes

iTunes

1 сезон

RePack

30

ИГРА 18+

pack

ВАЖНО

!!Акция!!

Alien_RageХит недели

RePack

MK11
pack

Забери бонус

RePack

jed

!!Акция!!

Alien_Rage

RePack

fifa19

RePack

Assassins Creed: Odyssey

RePack

NEED FOR SPEED™ PAYBACK

4 сезон

9 сезон

Бесстыжие 9 сезон

Все сериалы

все сериалы на PB.wtf

RePack

FAR CRY 5
  

Тень дракона / Серии: 1-4 из 4 (Сергей Краснов) [2020, Мелодрама, WEB-DL 1080p] pb.wtf

Тень дракона через торрент pb.wtf

Размер: 6.71 GB | Добавлен: 8 мес. назад | Торрент скачан:7 раз
Скачать  

16-02-2020 06:04 Тень дракона Скачать торрент  

Тень дракона Год выпуска: 2020
Страна: Россия
Жанр: Мелодрама
Продолжительность: ~ 00:44:00 серия
Субтитры: отсутствуют

Режиссер: Сергей Краснов



В ролях: Анна Тараторкина, Константин Стрельников, Алексей Анищенко, Эмилия Спивак, Юлия Кокрятская, Александр Горелов, Ольга Науменко, Максим Иванов (II), Александр Ревенко, Марина Волкова, Сергей Краснов, Любовь Селютина, Элеонора Шашкова, Андрей Гусев, Андрей Морозов

Описание: Марина и Виктор – супружеская пара, которой для полного счастья не хватает ребенка. Решение усыновить детдомовского мальчика Алешу кажется естественным выходом из этой ситуации. Марина – психолог, Алеша – ее пациент. Марина уверена, что молчание Алеши, которое все принимают за немоту, – результат тяжелой психологической травмы. Надо только узнать, какой именно. Страшная авария, в которую попадает Марина, переворачивает жизнь вверх дном. Любимый муж ушел, Алешу увез на Урал родной отец, жизнь потеряла всякий смысл. Но надежда вылечить Алешу заставляет Марину поехать на Урал. Здесь и открываются причины болезни мальчика. Он – свидетель убийства собственной матери. Узнав страшную тайну, Марина, как и Алеша, становится жертвой опасных преследователей.

Качество: WEB-DL 1080p
Формат: MKV

Видео: 1920х1080 (16:9), 25 fps, AVC MPEG-4 (x264), High@L4.1 ~ 5000 kbps avg, 0.094 bit/pixel
Аудио: 48 kHz, AC3, 2 ch, 256 kbps avg
скриншот  скриншот  скриншот  скриншот  

Общее
Уникальный идентификатор : 212152859233935724846209004064646470626 (0x9F9B278949C334DD9ABD08EE9DD59BE2)
Полное имя : C:\Тень дракона.(2020).WEB-DLRip.(AVC).Files-x\Ten.Drakona.S01.2020.WEB-DL.(1080p).ExKinoRay\Ten.Drakona.S01.E01.2020.WEB-DL.(1080p).ExKinoRay.mkv
Формат : Matroska
Версия формата : Version 4
Размер файла : 1,67 Гбайт
Продолжительность : 44 м. 33 с.
Общий поток : 5377 Кбит/сек
Дата кодирования : UTC 2020-02-16 05:33:11
Программа кодирования : mkvmerge v6.9.1 ('Blue Panther') 64bit built on Apr 18 2014 18:23:38
Библиотека кодирования : libebml v1.3.0 + libmatroska v1.4.1

Видео
Идентификатор : 1
Формат : AVC
Формат/Информация : Advanced Video Codec
Профиль формата : High@L4
Настройки формата : CABAC / 4 Ref Frames
Параметр CABAC формата : Да
Параметр RefFrames формата : 4 кадра
Идентификатор кодека : V_MPEG4/ISO/AVC
Продолжительность : 44 м. 33 с.
Битрейт : 5000 Кбит/сек
Ширина : 1920 пикселей
Высота : 1080 пикселей
Соотношение сторон : 16:9
Режим частоты кадров : Постоянный
Частота кадров : 25,000 кадров/сек
Цветовое пространство : YUV
Субдискретизация насыщенности : 4:2:0
Битовая глубина : 8 бит
Тип развёртки : Прогрессивная
Бит/(Пиксели*Кадры) : 0.097
Размер потока : 1,56 Гбайт (93%)
Default : Да
Forced : Нет

Аудио
Идентификатор : 2
Формат : AC-3
Формат/Информация : Audio Coding 3
Коммерческое название : Dolby Digital
Идентификатор кодека : A_AC3
Продолжительность : 44 м. 33 с.
Вид битрейта : Постоянный
Битрейт : 256 Кбит/сек
Каналы : 2 канала
ChannelLayout : L R
Частота : 48,0 КГц
Частота кадров : 31,250 кадров/сек (1536 SPF)
Метод сжатия : С потерями
Размер потока : 81,6 Мбайт (5%)
Язык : Russian
ServiceKind/String : Complete Main
Default : Да
Forced : Нет

pb.wtf



Скачать Тень дракона через торрент https://i111.fastpic.ru/big/2020/0215/f5/fff5d6daa9cf4275682b44e337aca4f5.jpg Скачать фильм Тень дракона через торрент бесплантно в хорошем качестве Описание: Марина и Виктор – супружеская пара, которой для полного счастья не хватает ребенка. Решение усыновить детдомовского мальчика ... 10 10 3
Торрент: Зарегистрирован [2020-02-16 06:04] · скачан: 7 раз
Статус: √ проверено
Размер: 6.71 GB
Как cкачать? Как скачать Тень дракона через торрент | qTorrent

% Раздел Тема Автор DL S | L
Наши сериалы [ 3.53 GB ] Тень дракона / Серии: 1-4 из 4 [2020 Мело WEB-DL 720p] bober100 Скачать
1 | 0
Наши сериалы [ 2.25 GB ] Тень дракона / Серии: 1-4 из 4 [2020 Мело WEB-DLRip] bober100 Скачать
1 | 0
Наши сериалы [ 2.24 GB ] Тень дракона / Серии: 1-4 из 4 [2020 Мело WEB-DLRip-AVC] bober100 Скачать
1 | 0
Наши сериалы [ 2.06 GB ] Тень дракона / Серии: 1-4 из 4 [2020 SATRip-AVC] aleksan55 Скачать
2 | 0

28-11-2019 20:33  

Отключить всю рекламу на сайте

    Дорогой пользователь! Огромная просьба, поблагодарите релизера, оцените раздачу и оставьте свои комментарий, если Вы скачали Тень дракона через торрент бесплатно! Внесите свою лепту в развитие PiratBit!
    Комментировать посты могут только пользователи прошедшие не сложную регистрацию
    Показать сообщения:    

    Тень дракона через торрент
    Скачать бесплатно Тень дракона
    Тень дракона скачать торрент
    Тень дракона смотреть онлайн
    Cкачать фильм Тень дракона бесплатно
    Тень дракона скачать торрент в хорошем качестве
    Тень дракона смотреть онлайн бесплатно в хорошем качестве


    Вы не можете начинать темы
    Вы не можете отвечать на сообщения
    Вы не можете редактировать свои сообщения
    Вы не можете удалять свои сообщения
    Вы не можете голосовать в опросах
    Вы не можете прикреплять файлы к сообщениям
    Вы можете скачивать файлы