Ссылка на приватное зеркало нашего сайта всего за 1$. Внимание количество ограничено!!!

2 сезон

iTunes

1 сезон

1

iTunes

iTunes

iTunes

1 сезон

RePack

30

ИГРА 18+

pack

ВАЖНО

!!Акция!!

Alien_RageХит недели

RePack

MK11
pack

Забери бонус

RePack

jed

!!Акция!!

Alien_Rage

RePack

fifa19

RePack

Assassins Creed: Odyssey

RePack

NEED FOR SPEED™ PAYBACK

4 сезон

9 сезон

Бесстыжие 9 сезон

Все сериалы

все сериалы на PB.wtf

RePack

FAR CRY 5
  

Идеальный брак / Серии: 1-2 из 2 (Петр Степин) [2020, Мелодрама, HDTVRip 720p] pb.wtf

Идеальный брак через торрент pb.wtf

Размер: 4.8 GB | Добавлен: 8 мес. назад | Торрент скачан:23 раза
Скачать  

16-02-2020 08:41 Идеальный брак Скачать торрент  

Идеальный брак Год выпуска: 2020
Страна: Россия
Студия: Паламеда Продакшн. Фабула Продакшн
Жанр: Мелодрама
Продолжительность: ~ 01:30:00
Перевод: Не требуется
Субтитры: отсутствуют

Режиссер: Петр Степин

В ролях: Нина Гогаева, Юрий Батурин, Ангелина Поплавская, Валентина Гарцуева, Ирина Нарбекова, Лариса Маршалова

Описание: Брак Елены и Михаила Орловых кажется нерушимым. Дом, любимая работа, взрослая дочь. Но Елена — врач-трудоголик и на семью у неё совсем не остаётся времени. Муж всегда относился к этому с пониманием, но терпение его уже на исходе — ведь жены никогда нет рядом. К тому же Елена не хочет заводить ребенка и всё чаще пропадает в детском доме. Она надеется удочерить девочку, чья мать умерла у неё на операционном столе.

Качество: HDTVRip 720p
Формат: MKV

Видео: 1280х720(16:9), 25 fps, AVC MPEG-4 (x264), High@L4.1 ~ 3500 kbps , 0.152 bit/pixel
Аудио: 48 kHz, AC3, 2 ch, ~ 192 kbps avg
скриншот  скриншот  скриншот  скриншот  

Общее
Уникальный идентификатор : 185414607289044494504293757220811414853 (0x8B7D8DEF27DEE51FBD2BF0EB464B9D45)
Полное имя : C:\Idealnyj.brak.2019.HDTVRip.(720p).ExKinoRay\Idealnyj.brak.E01.2019.HDTVRip.(720p).ExKinoRay.mkv
Формат : Matroska
Версия формата : Version 4
Размер файла : 2,36 Гбайт
Продолжительность : 1 ч. 31 м.
Общий поток : 3693 Кбит/сек
Дата кодирования : UTC 2020-02-16 08:15:02
Программа кодирования : mkvmerge v6.9.1 ('Blue Panther') 64bit built on Apr 18 2014 18:23:38
Библиотека кодирования : libebml v1.3.0 + libmatroska v1.4.1

Видео
Идентификатор : 1
Формат : AVC
Формат/Информация : Advanced Video Codec
Профиль формата : High@L4.1
Настройки формата : CABAC / 9 Ref Frames
Параметр CABAC формата : Да
Параметр RefFrames формата : 9 кадров
Идентификатор кодека : V_MPEG4/ISO/AVC
Продолжительность : 1 ч. 31 м.
Битрейт : 3500 Кбит/сек
Ширина : 1280 пикселей
Высота : 720 пикселей
Соотношение сторон : 16:9
Режим частоты кадров : Постоянный
Частота кадров : 25,000 кадров/сек
Цветовое пространство : YUV
Субдискретизация насыщенности : 4:2:0
Битовая глубина : 8 бит
Тип развёртки : Прогрессивная
Бит/(Пиксели*Кадры) : 0.152
Размер потока : 2,19 Гбайт (93%)
Библиотека кодирования : x264 core 146 r2538 121396c
Настройки программы : cabac=1 / ref=9 / deblock=1:-3:-3 / analyse=0x3:0x113 / me=umh / subme=11 / psy=1 / psy_rd=1.00:0.20 / mixed_ref=1 / me_range=32 / chroma_me=1 / trellis=2 / 8x8dct=1 / cqm=0 / deadzone=21,11 / fast_pskip=1 / chroma_qp_offset=-3 / threads=24 / lookahead_threads=10 / sliced_threads=0 / nr=0 / decimate=0 / interlaced=0 / bluray_compat=0 / constrained_intra=0 / bframes=10 / b_pyramid=2 / b_adapt=2 / b_bias=0 / direct=3 / weightb=1 / open_gop=0 / weightp=2 / keyint=250 / keyint_min=25 / scenecut=40 / intra_refresh=0 / rc_lookahead=60 / rc=2pass / mbtree=1 / bitrate=3500 / ratetol=1.0 / qcomp=0.60 / qpmin=0 / qpmax=69 / qpstep=4 / cplxblur=20.0 / qblur=0.5 / vbv_maxrate=14000 / vbv_bufsize=14000 / nal_hrd=none / filler=0 / ip_ratio=1.40 / aq=3:1.40
Default : Нет
Forced : Нет
Цветовой диапазон : Limited
Основные цвета : BT.709
Характеристики трансфера : BT.709
Коэффициенты матрицы : BT.709

Аудио
Идентификатор : 2
Формат : AC-3
Формат/Информация : Audio Coding 3
Коммерческое название : Dolby Digital
Идентификатор кодека : A_AC3
Продолжительность : 1 ч. 31 м.
Вид битрейта : Постоянный
Битрейт : 192 Кбит/сек
Каналы : 2 канала
ChannelLayout : L R
Частота : 48,0 КГц
Частота кадров : 31,250 кадров/сек (1536 SPF)
Метод сжатия : С потерями
Размер потока : 126 Мбайт (5%)
Язык : Russian
ServiceKind/String : Complete Main
Default : Да
Forced : Да

pb.wtf



Скачать Идеальный брак через торрент https://i111.fastpic.ru/big/2020/0215/3d/80ffab6a1f7232233405c3526042f93d.jpg Скачать фильм Идеальный брак через торрент бесплантно в хорошем качестве Описание: Брак Елены и Михаила Орловых кажется нерушимым. Дом, любимая работа, взрослая дочь. Но Елена — врач-трудоголик и на семью у неё ... 10 10 2
Торрент: Зарегистрирован [2020-02-16 08:41] · скачан: 23 раз
Статус: √ проверено
Размер: 4.8 GB
Как cкачать? Как скачать Идеальный брак через торрент | qTorrent

% Раздел Тема Автор DL S | L
Наши сериалы [ 9.96 GB ] Идеальный брак / Серии: 1-2 из 2 [2020 Мело HDTV 1080i] bober100 Скачать
1 | 0

28-11-2019 20:33  

Отключить всю рекламу на сайте

    Дорогой пользователь! Огромная просьба, поблагодарите релизера, оцените раздачу и оставьте свои комментарий, если Вы скачали Идеальный брак через торрент бесплатно! Внесите свою лепту в развитие PiratBit!
    Комментировать посты могут только пользователи прошедшие не сложную регистрацию
    Показать сообщения:    

    Идеальный брак через торрент
    Скачать бесплатно Идеальный брак
    Идеальный брак скачать торрент
    Идеальный брак смотреть онлайн
    Cкачать фильм Идеальный брак бесплатно
    Идеальный брак скачать торрент в хорошем качестве
    Идеальный брак смотреть онлайн бесплатно в хорошем качестве


    Вы не можете начинать темы
    Вы не можете отвечать на сообщения
    Вы не можете редактировать свои сообщения
    Вы не можете удалять свои сообщения
    Вы не можете голосовать в опросах
    Вы не можете прикреплять файлы к сообщениям
    Вы можете скачивать файлы