Ссылка на приватное зеркало нашего сайта всего за 1$. Внимание количество ограничено!!!

2 сезон

iTunes

1 сезон

1

2 сезон

2 сезон

iTunes

1 сезон

RePack

30

Ultimate

ВАЖНО

ИГРА 18+

pack

RePack

MK11
pack

Забери бонус

RePack

jed

!!Акция!!

Alien_Rage

RePack

fifa19

RePack

Assassins Creed: Odyssey

RePack

NEED FOR SPEED™ PAYBACK

4 сезон

9 сезон

Бесстыжие 9 сезон

Все сериалы

все сериалы на PB.wtf

RePack

FAR CRY 5
  

Чёрное Рождество / Black Christmas (Софи Такал) [2019, Ужасы, триллер, детектив, WEB-DL 1080p] DUB [iTunes] pb.wtf

Чёрное Рождество через торрент pb.wtf

Раздают: 3 [ 0 KB/s ]
Размер: 3.47 GB | Добавлен: 9 мес. назад | Торрент скачан:181 раз
Скачать  

16-02-2020 08:57 Чёрное Рождество Скачать торрент  

Чёрное Рождество | Black Christmas
Год выпуска: 2019
Страна: США, Новая Зеландия
Жанр: Ужасы, триллер, детектив
Продолжительность: 01:32:10
Перевод: Дублированный | iTunes
Субтитры: Английские

Режиссер: Софи Такал

rating

В ролях: Имоджен Путс, Ализ Шэннон, Лили Донохью, Бриттани О’Грэйди, Калеб Эберхардт, Кэри Элвес, Саймон Мид, Мадлен Адамс, Натали Моррис, Бен Блэк

Описание: Фильм является ремейком культового хоррора 1974 года. Рождественские каникулы не сулят ничего иного кроме как веселья, однако не в этот раз. В женском кампусе колледжа в Хортоне начинает орудовать серийный маньяк. Одну за одной он убивает молодых студенток, и среди выживших начинается настоящая битва за выживание.

Качество: WEB-DL 1080p
Формат: MKV

Видео: MPEG-4 AVC, 4618 Кбит/с, 1916x804
Аудио #01: 48 kHz, AC3, 5.1, 384 Kbps | iTunes | RUS |
Аудио #02: 48 kHz, AC3, 5.1, 384 Kbps | Оригинал | ENG |
скриншот  скриншот  скриншот  скриншот  

General
Unique ID : 200156080951564446445861580806304977255 (0x9694A8B34770792581893DC610AE5167)
Complete name : D:FilmsBlack.Christmas.2019.WEB-DL.1080p.mkv
Format : Matroska
Format version : Version 4 / Version 2
File size : 3.47 GiB
Duration : 1 h 32 min
Overall bit rate : 5 389 kb/s
Movie name : ELEKTRI4KA.UNIONGANG
Encoded date : UTC 2020-02-15 19:36:42
Writing application : mkvmerge v8.3.0 ('Over the Horizon') 64bit
Writing library : libebml v1.3.1 + libmatroska v1.4.2

Video
ID : 1
Format : AVC
Format/Info : Advanced Video Codec
Format profile : High@L4
Format settings, CABAC : Yes
Format settings, RefFrames : 5 frames
Codec ID : V_MPEG4/ISO/AVC
Duration : 1 h 32 min
Bit rate : 4 618 kb/s
Width : 1 916 pixels
Height : 804 pixels
Display aspect ratio : 2.40:1
Frame rate mode : Constant
Frame rate : 23.976 FPS
Color space : YUV
Chroma subsampling : 4:2:0
Bit depth : 8 bits
Scan type : Progressive
Bits/(Pixel*Frame) : 0.125
Stream size : 2.97 GiB (86%)
Title : iTunes (ELEKTRI4KA.UNIONGANG)
Language : English
Default : Yes
Forced : No
Color range : Limited
Color primaries : BT.709
Transfer characteristics : BT.709
Matrix coefficients : BT.709

Audio #1
ID : 2
Format : AC-3
Format/Info : Audio Coding 3
Format settings, Endianness : Big
Codec ID : A_AC3
Duration : 1 h 32 min
Bit rate mode : Constant
Bit rate : 384 kb/s
Channel(s) : 6 channels
Channel positions : Front: L C R, Side: L R, LFE
Sampling rate : 48.0 kHz
Frame rate : 31.250 FPS (1536 SPF)
Bit depth : 16 bits
Compression mode : Lossy
Stream size : 253 MiB (7%)
Title : iTunes (ELEKTRI4KA.UNIONGANG)
Language : Russian
Service kind : Complete Main
Default : Yes
Forced : No

Audio #2
ID : 3
Format : AC-3
Format/Info : Audio Coding 3
Format settings, Endianness : Big
Codec ID : A_AC3
Duration : 1 h 32 min
Bit rate mode : Constant
Bit rate : 384 kb/s
Channel(s) : 6 channels
Channel positions : Front: L C R, Side: L R, LFE
Sampling rate : 48.0 kHz
Frame rate : 31.250 FPS (1536 SPF)
Bit depth : 16 bits
Compression mode : Lossy
Stream size : 253 MiB (7%)
Title : Original
Language : English
Service kind : Complete Main
Default : No
Forced : No

Text
ID : 4
Format : UTF-8
Codec ID : S_TEXT/UTF8
Codec ID/Info : UTF-8 Plain Text
Duration : 1 h 26 min
Bit rate : 59 b/s
Count of elements : 1266
Stream size : 37.5 KiB (0%)
Language : English
Default : Yes
Forced : No

Menu
00:00:00.000 : en:1
00:06:55.248 : en:2
00:11:32.692 : en:3
00:13:55.209 : en:4
00:18:02.080 : en:5
00:23:24.651 : en:6
00:28:22.114 : en:7
00:33:52.486 : en:8
00:37:08.514 : en:9
00:41:21.432 : en:10
00:47:06.652 : en:11
00:53:30.534 : en:12
00:58:14.150 : en:13
01:03:13.657 : en:14
01:06:29.436 : en:15
01:10:03.566 : en:16
01:14:35.045 : en:17
01:19:09.027 : en:18
01:21:27.498 : en:19
01:26:15.786 : en:20

pb.wtf



Скачать Чёрное Рождество через торрент https://img16.lostpic.net/2020/02/16/3e18f34069329f69acc34201a2ea1316.jpg Скачать фильм Чёрное Рождество через торрент бесплантно в хорошем качестве Описание: Фильм является ремейком культового хоррора 1974 года. Рождественские каникулы не сулят ничего иного кроме как веселья, однако не ... 10 10 9
Торрент: Зарегистрирован [2020-02-16 08:57] · скачан: 181 раз
Статус: √ проверено
Размер: 3.47 GB
Как cкачать? Как скачать Чёрное Рождество через торрент | qTorrent

% Раздел Тема Автор DL S | L
Фильмы 2019-2020 [DVDrip, WEB-DLRip, HDrip] (DUB, MVO) [ 1.46 GB ] Чёрное Рождество / Black Christmas [2019 BDRip] - [] Twi7ter Скачать
3 | 0
Фильмы (Blu-ray, BD-Remux, HDDVD) [ 34.34 GB ] Чёрное Рождество / Black Christmas [2019 Blu-ray EUR 1080p] DUB [] bober100 Скачать
1 | 0
Фильмы 2019-2020 [DVDrip, WEB-DLRip, HDrip] (DUB, MVO) [ 1.46 GB ] Чёрное Рождество / Black Christmas [2019 BDRip] DUB [ Blu-ray EUR] bober100 Скачать
1 | 0
Фильмы (WEB-DL 720p, 1080p) [ 3.14 GB ] Чёрное Рождество / Black Christmas [2019 WEB-DL 720p] bober100 Скачать
1 | 0
Фильмы [HD 720p, 1080p] (Хороший звук DUB, MVO) [ 11.31 GB ] Чёрное Рождество / Black Christmas [2019 BDRip 1080p] DUB [] bober100 Скачать
1 | 0
Фильмы 2019-2020 [DVDrip, WEB-DLRip, HDrip] (DUB, MVO) [ 748 MB ] Чёрное Рождество / Black Christmas [2019 HDRip] DUB [] bober100 Скачать
1 | 0
Фильмы [HD 720p, 1080p] (Хороший звук DUB, MVO) [ 10.55 GB ] Чёрное Рождество / Black Christmas [1974 BDRip 1080p by msltel] DVO 2 x AVO msltel Скачать
1 | 0

28-11-2019 20:33  

Отключить всю рекламу на сайте

    Дорогой пользователь! Огромная просьба, поблагодарите релизера, оцените раздачу и оставьте свои комментарий, если Вы скачали Чёрное Рождество через торрент бесплатно! Внесите свою лепту в развитие PiratBit!
    Комментировать посты могут только пользователи прошедшие не сложную регистрацию
    Показать сообщения:    

    Чёрное Рождество через торрент
    Скачать бесплатно Чёрное Рождество
    Чёрное Рождество скачать торрент
    Чёрное Рождество смотреть онлайн
    Cкачать фильм Чёрное Рождество бесплатно
    Чёрное Рождество скачать торрент в хорошем качестве
    Чёрное Рождество смотреть онлайн бесплатно в хорошем качестве


    Вы не можете начинать темы
    Вы не можете отвечать на сообщения
    Вы не можете редактировать свои сообщения
    Вы не можете удалять свои сообщения
    Вы не можете голосовать в опросах
    Вы не можете прикреплять файлы к сообщениям
    Вы можете скачивать файлы