Ссылка на приватное зеркало нашего сайта всего за 1$. Внимание количество ограничено!!!

2 сезон

iTunes

1 сезон

1

2 сезон

2 сезон

iTunes

1 сезон

RePack

30

Новинка

ВАЖНО

ИГРА 18+

pack

RePack

MK11
pack

Забери бонус

RePack

jed

!!Акция!!

Alien_Rage

RePack

fifa19

RePack

Assassins Creed: Odyssey

RePack

NEED FOR SPEED™ PAYBACK

4 сезон

9 сезон

Бесстыжие 9 сезон

Все сериалы

все сериалы на PB.wtf

RePack

FAR CRY 5
  

Фантазм / Phantasm (Дон Коскарелли) [1979 г., ужасы, мистика, фантастика, Blu-Ray Remux 1080p] 6xAVO, MVO, SUB (Eng) pb.wtf

Фантазм через торрент pb.wtf

Размер: 14.75 GB | Добавлен: 9 мес. назад | Торрент скачан:3 раза
Скачать  

16-02-2020 18:46 Фантазм Скачать торрент  

Фантазм / Phantasm
Год выпуска: 1979

Страна: США

Жанр: Ужасы, мистика, фантастика

Продолжительность: 01:29:10

Перевод: Профессиональный (многоголосый), авторский (одноголосый)

Субтитры: Английские

Режиссер: Дон Коскарелли

rating

В ролях: А. Майкл Болдуин, Билл Торнбери, Рэджи Бэннистер, Кэти Лестер, Терри Калбус, Кеннет В. Джонс, Сьюзэн Харпер, Линн Истмэн, Дэвид Арнцен, Ральф Ричмонд

Описание: Немногим дано встретиться с потусторонними силами. Выжить после такой встречи — ещё труднее. Два брата, Майк и Джоди, становятся свидетелями необъяснимых, загадочных явлений на городском кладбище. Они видят призраков, которые бродят по ночам среди могил. На глазах братьев рождаются маленькие, но могущественные демоны; в запечатанных склепах слышится таинственный шорох.Майку с Джоди удаётся выяснить, что причина этих явлений — Врата в загадочный, пугающий, чужой мир. У Врат есть Хранитель, «Верзила», вооружённый летающей серебряной сферой, которая буравит головы незваных гостей. Раскрывшим жуткую тайну кладбища братьям и их другу Реджи придётся вступить в жестокую схватку с «Верзилой». Победа или мучительная смерть — у них нет иного выбора.
Качество: Blu-Ray Remux 1080p
Формат: MKV
Видео: MPEG-4 AVC, 20.0 Mбит/с, 1920x1080
Аудио#1: Английский, DTS-HD, 6 ch, 2337 Кбит/сек
Аудио#2: Русский, AC-3, 2 ch, 192 Кбит/с - AVO (В. Горчаков)
Аудио#3: Русский, AC-3, 2 ch, 192 Кбит/с - AVO (А. Гаврилов)
Аудио#4: Русский, AC-3, 2 ch, 192 Кбит/с - AVO (Ю. Сербин)
Аудио#5: Русский, AC-3, 2 ch, 192 Кбит/с - AVO (В. Дохалов)
Аудио#6: Русский, AC-3, 2 ch, 192 Кбит/с - AVO (Ю. Живов)
Аудио#7: Русский, AC-3, 2 ch, 192 Кбит/с - AVO (М. Ошурков)
Аудио#8: Русский, AC-3, 2 ch, 192 Кбит/с - MVO (D2lab)
Видео
Идентификатор : 1
Формат : AVC
Формат/Информация : Advanced Video Codec
Профиль формата : High@L4.1
Настройки формата : CABAC / 4 Ref Frames
Параметр CABAC формата : Да
Параметр RefFrames формата : 4 кадра
Идентификатор кодека : V_MPEG4/ISO/AVC
Продолжительность : 1 ч. 29 м.
Вид битрейта : Переменный
Битрейт : 20,0 Мбит/сек
Максимальный битрейт : 25,0 Мбит/сек
Ширина : 1920 пикселей
Высота : 1080 пикселей
Соотношение сторон : 16:9
Режим частоты кадров : Постоянный
Частота кадров : 24,000 кадра/сек
Стандарт вещания : NTSC
Цветовое пространство : YUV
Субдискретизация насыщенности : 4:2:0
Битовая глубина : 8 бит
Тип развёртки : Прогрессивная
Бит/(Пиксели*Кадры) : 0.402
Размер потока : 12,5 Гбайт (84%)
Язык : English
Default : Нет
Forced : Нет
Цветовой диапазон : Limited
Основные цвета : BT.709
Характеристики трансфера : BT.709
Коэффициенты матрицы : BT.709

Аудио #1
Идентификатор : 2
Формат : DTS XLL
Формат/Информация : Digital Theater Systems
Коммерческое название : DTS-HD Master Audio
Идентификатор кодека : A_DTS
Продолжительность : 1 ч. 29 м.
Вид битрейта : Переменный
Битрейт : 2337 Кбит/сек
Каналы : 6 каналов
ChannelLayout : C L R Ls Rs LFE
Частота : 48,0 КГц
Частота кадров : 93,750 кадра/сек (512 SPF)
Битовая глубина : 16 бит
Метод сжатия : Без потерь
Задержка видео : 2 с. 0 мс.
Размер потока : 1,46 Гбайт (10%)
Заголовок : Surround 5.1
Язык : English
Default : Нет
Forced : Нет

Аудио #2
Идентификатор : 4
Формат : AC-3
Формат/Информация : Audio Coding 3
Коммерческое название : Dolby Digital
Идентификатор кодека : A_AC3
Продолжительность : 1 ч. 28 м.
Вид битрейта : Постоянный
Битрейт : 192 Кбит/сек
Каналы : 2 канала
ChannelLayout : L R
Частота : 48,0 КГц
Частота кадров : 31,250 кадров/сек (1536 SPF)
Битовая глубина : 16 бит
Метод сжатия : С потерями
Задержка видео : 40 с. 13 мс.
Размер потока : 121 Мбайт (1%)
Заголовок : В. Горчаков
Язык : Russian
ServiceKind/String : Complete Main
Default : Да
Forced : Да

Аудио #3
Идентификатор : 5
Формат : AC-3
Формат/Информация : Audio Coding 3
Коммерческое название : Dolby Digital
Идентификатор кодека : A_AC3
Продолжительность : 1 ч. 28 м.
Вид битрейта : Постоянный
Битрейт : 192 Кбит/сек
Каналы : 2 канала
ChannelLayout : L R
Частота : 48,0 КГц
Частота кадров : 31,250 кадров/сек (1536 SPF)
Битовая глубина : 16 бит
Метод сжатия : С потерями
Задержка видео : 40 с. 13 мс.
Размер потока : 121 Мбайт (1%)
Заголовок : А. Гаврилов
Язык : Russian
ServiceKind/String : Complete Main
Default : Нет
Forced : Нет

Аудио #4
Идентификатор : 6
Формат : AC-3
Формат/Информация : Audio Coding 3
Коммерческое название : Dolby Digital
Идентификатор кодека : A_AC3
Продолжительность : 1 ч. 28 м.
Вид битрейта : Постоянный
Битрейт : 192 Кбит/сек
Каналы : 2 канала
ChannelLayout : L R
Частота : 48,0 КГц
Частота кадров : 31,250 кадров/сек (1536 SPF)
Битовая глубина : 16 бит
Метод сжатия : С потерями
Задержка видео : 40 с. 13 мс.
Размер потока : 121 Мбайт (1%)
Заголовок : Ю. Сербин
Язык : Russian
ServiceKind/String : Complete Main
Default : Нет
Forced : Нет

Аудио #5
Идентификатор : 7
Формат : AC-3
Формат/Информация : Audio Coding 3
Коммерческое название : Dolby Digital
Идентификатор кодека : A_AC3
Продолжительность : 1 ч. 28 м.
Вид битрейта : Постоянный
Битрейт : 192 Кбит/сек
Каналы : 2 канала
ChannelLayout : L R
Частота : 48,0 КГц
Частота кадров : 31,250 кадров/сек (1536 SPF)
Битовая глубина : 16 бит
Метод сжатия : С потерями
Задержка видео : 40 с. 13 мс.
Размер потока : 121 Мбайт (1%)
Заголовок : В. Дохалов
Язык : Russian
ServiceKind/String : Complete Main
Default : Нет
Forced : Нет

Аудио #6
Идентификатор : 8
Формат : AC-3
Формат/Информация : Audio Coding 3
Коммерческое название : Dolby Digital
Идентификатор кодека : A_AC3
Продолжительность : 1 ч. 28 м.
Вид битрейта : Постоянный
Битрейт : 192 Кбит/сек
Каналы : 2 канала
ChannelLayout : L R
Частота : 48,0 КГц
Частота кадров : 31,250 кадров/сек (1536 SPF)
Битовая глубина : 16 бит
Метод сжатия : С потерями
Задержка видео : 40 с. 13 мс.
Размер потока : 121 Мбайт (1%)
Заголовок : Ю. Живов
Язык : Russian
ServiceKind/String : Complete Main
Default : Нет
Forced : Нет

Аудио #7
Идентификатор : 9
Формат : AC-3
Формат/Информация : Audio Coding 3
Коммерческое название : Dolby Digital
Идентификатор кодека : A_AC3
Продолжительность : 1 ч. 28 м.
Вид битрейта : Постоянный
Битрейт : 192 Кбит/сек
Каналы : 2 канала
ChannelLayout : L R
Частота : 48,0 КГц
Частота кадров : 31,250 кадров/сек (1536 SPF)
Битовая глубина : 16 бит
Метод сжатия : С потерями
Задержка видео : 40 с. 13 мс.
Размер потока : 121 Мбайт (1%)
Заголовок : М. Ошурков
Язык : Russian
ServiceKind/String : Complete Main
Default : Нет
Forced : Нет

Аудио #8
Идентификатор : 10
Формат : AC-3
Формат/Информация : Audio Coding 3
Коммерческое название : Dolby Digital
Идентификатор кодека : A_AC3
Продолжительность : 1 ч. 28 м.
Вид битрейта : Постоянный
Битрейт : 192 Кбит/сек
Каналы : 2 канала
ChannelLayout : L R
Частота : 48,0 КГц
Частота кадров : 31,250 кадров/сек (1536 SPF)
Битовая глубина : 16 бит
Метод сжатия : С потерями
Задержка видео : 40 с. 13 мс.
Размер потока : 121 Мбайт (1%)
Заголовок : D2lab
Язык : Russian
ServiceKind/String : Complete Main
Default : Нет
Forced : Нет

Текст
Идентификатор : 3
Формат : PGS
Режим смешивания : zlib
Идентификатор кодека : S_HDMV/PGS
Идентификатор кодека/Информация : Picture based subtitle format used on BDs/HD-DVDs
Продолжительность : 1 ч. 28 м.
Битрейт : 5577 бит/сек
ElementCount : 1032
Размер потока : 3,51 Мбайт (0%)
Язык : English
Default : Нет
Forced : Нет

Меню
00:00:00.000 : en:Chapter 00
00:08:37.666 : en:Chapter 01
00:15:39.666 : en:Chapter 02
00:25:32.958 : en:Chapter 03
00:33:37.458 : en:Chapter 04
00:40:22.375 : en:Chapter 05
00:52:33.083 : en:Chapter 06
01:06:43.291 : en:Chapter 07
01:13:37.708 : en:Chapter 08
01:26:30.750 : en:Chapter 09

скриншот   скриншот   скриншот  

pb.wtf



Скачать Фантазм через торрент http://pic1.kartinco.top/images/12/tr8e3.jpg Скачать фильм Фантазм через торрент бесплантно в хорошем качестве Описание: Немногим дано встретиться с потусторонними силами. Выжить после такой встречи — ещё труднее. Два брата, Майк и Джоди, становятся ... 10 10 1
Info! Золотая раздача, скачанное не засчитывается.
Торрент: Зарегистрирован [2020-02-16 18:46] · скачан: 3 раз
Статус: √ проверено
Размер: 14.75 GB
Как cкачать? Как скачать Фантазм через торрент | qTorrent

% Раздел Тема Автор DL S | L
T Релизы по Парсеру [Игры, Сериалы и Фильмы и другое...] [ 3.55 GB ] Фантазм 5 / Phantasm: Ravager [2016 WEB-DL 1080p] Любительский одноголосый [Xixidok] -Lexx- Скачать
1 | 0
Фильмы до 2000 г. [ 1.46 GB ] Фантазм 4: Забвение / Phantasm IV: Oblivion [1998 BDRip] MVO -Lexx- Скачать
1 | 0
Фильмы (Blu-ray, BD-Remux, HDDVD) [ 24.83 GB ] Фантазм 4: Забвение / Phantasm IV: Oblivion [1998 BDRemux 1080р] MVO + 3x AVO -Lexx- Скачать
1 | 0
Фильмы [HD 720p, 1080p] (Хороший звук DUB, MVO) [ 16 GB ] Фантазм 3 / Phantasm III: Lord of the Dead [1994 BDRip 1080p by msltel] MVO 6 x AVO msltel Скачать
1 | 0
Фильмы [HD 720p, 1080p] (Хороший звук DUB, MVO) [ 6.34 GB ] Фантазм 3 / Phantasm III: Lord of the Dead [1994 BDRip 720p by msltel] MVO 6 x AVO msltel Скачать
1 | 0
T Фильмы 2016 (Звук TS, Cam, VO, DVO) [ 1.19 GB ] Фантазм 5 / Phantasm: Ravager [2016 WEB-DLRip] Любительский одноголосый [Xixidok] -Lexx- Скачать
1 | 0
Фильмы до 2000 г. [ 744 MB ] Фантазм 2 / Phantasm II [1988 HDRip] MVO dexter lex Скачать
1 | 0

28-11-2019 20:33  

Отключить всю рекламу на сайте

16-02-2020 19:15 Фантазм Скачать торрент  

Когда-то играл в игру-ужастик с похожим названием Фантазмагория, она была на 8-ми(!) CD. До сих пор где-то этот BОХ валяется. Какой же я древний.........pb.wtf



17-02-2020 06:57 Фантазм Скачать торрент  

а остальные части будут, Леонид Ильич? pb.wtf



17-02-2020 20:55 Фантазм Скачать торрент  

YurikSan писал(а):

а остальные части будут, Леонид Ильич?

остальные части давно есть на пиратеpb.wtf



    Дорогой пользователь! Огромная просьба, поблагодарите релизера, оцените раздачу и оставьте свои комментарий, если Вы скачали Фантазм через торрент бесплатно! Внесите свою лепту в развитие PiratBit!
    Комментировать посты могут только пользователи прошедшие не сложную регистрацию
    Показать сообщения:    

    Фантазм через торрент
    Скачать бесплатно Фантазм
    Фантазм скачать торрент
    Фантазм смотреть онлайн
    Cкачать фильм Фантазм бесплатно
    Фантазм скачать торрент в хорошем качестве
    Фантазм смотреть онлайн бесплатно в хорошем качестве


    Вы не можете начинать темы
    Вы не можете отвечать на сообщения
    Вы не можете редактировать свои сообщения
    Вы не можете удалять свои сообщения
    Вы не можете голосовать в опросах
    Вы не можете прикреплять файлы к сообщениям
    Вы можете скачивать файлы