Ссылка на приватное зеркало нашего сайта всего за 1$. Внимание количество ограничено!!!

2 сезон

iTunes

1 сезон

1

iTunes

iTunes

iTunes

1 сезон

RePack

30

ИГРА 18+

pack

ВАЖНО

!!Акция!!

Alien_RageХит недели

RePack

MK11
pack

Забери бонус

RePack

jed

!!Акция!!

Alien_Rage

RePack

fifa19

RePack

Assassins Creed: Odyssey

RePack

NEED FOR SPEED™ PAYBACK

4 сезон

9 сезон

Бесстыжие 9 сезон

Все сериалы

все сериалы на PB.wtf

RePack

FAR CRY 5
  

Город невест / Сезон: 1 / Серии: 1-8 из 8 (Алексей Рудаков) [2020, Драма, криминал, SATRip] pb.wtf

Город невест через торрент pb.wtf

Раздают: 1 [ 0 KB/s ]
Размер: 5.21 GB | Добавлен: 8 мес. назад | Торрент скачан:100 раз
Скачать  

17-02-2020 15:49 Город невест Скачать торрент  

Город невест
Год выпуска: 2020
Страна: Россия
Жанр: Драма, криминал
Продолжительность: ~ 00:52:00
Субтитры: отсутствуют

Режиссер: Алексей Рудаков



В ролях: Светлана Смирнова-Марцинкевич, Тимофей Каратаев, Роман Полянский, Юлия Галкина, Глафира Козулина, Вероника Пляшкевич, Евгений Сидихин, Анастасия Ступина, Олег Коц, Андрей Милюхин, Алексей Лысенко

Описание: Город Иваново – «текстильная столица» России, «город невест». Здесь живут и работают на ткацкой фабрике четыре подруги – Настя, Алина, Соня и Катя. Подруги всегда поддерживают друг друга. И у каждой свои проблемы в личной жизни. Всё меняется в день свадьбы Настиного брата – Лёни. Его находят мёртвым в реке, а Юру – жениха Насти – обвиняют в убийстве...

Качество: SATRip
Формат: AVI

Видео: XviD, ~ 1606 Кбит/с, 720x400, 25 кадр/с
Аудио: 48.0 kHz, AC3 Dolby Digital, 2/0 (L,R) ch, ~ 192 kbps
скриншот  скриншот  скриншот  скриншот  

General
Complete name : C:01.Город невест.(2019).SATRip.by.Nicodem.Files-x.avi
Format : AVI
Format/Info : Audio Video Interleave
File size : 666 MiB
Duration : 51mn 31s
Overall bit rate : 1 808 Kbps
Writing application : VirtualDubMod 1.5.10.3 | www.virtualdub-fr.org || (build 2550/release)
Writing library : VirtualDubMod build 2550/release

Video
ID : 0
Format : MPEG-4 Visual
Format profile : Advanced Simple@L5
Format settings, BVOP : 1
Format settings, QPel : No
Format settings, GMC : No warppoints
Format settings, Matrix : Custom
Codec ID : XVID
Codec ID/Hint : XviD
Duration : 51mn 31s
Bit rate : 1 606 Kbps
Width : 720 pixels
Height : 400 pixels
Display aspect ratio : 16:9
Frame rate : 25.000 fps
Color space : YUV
Chroma subsampling : 4:2:0
Bit depth : 8 bits
Scan type : Progressive
Compression mode : Lossy
Bits/(Pixel*Frame) : 0.223
Stream size : 592 MiB (89%)
Writing library : XviD 73

Audio
ID : 1
Format : AC-3
Format/Info : Audio Coding 3
Mode extension : CM (complete main)
Codec ID : 2000
Duration : 51mn 31s
Bit rate mode : Constant
Bit rate : 192 Kbps
Channel(s) : 2 channels
Channel positions : Front: L R
Sampling rate : 48.0 KHz
Bit depth : 16 bits
Compression mode : Lossy
Stream size : 70.8 MiB (11%)
Alignment : Split accross interleaves
Interleave, duration : 40 ms (1.00 video frame)
Interleave, preload duration : 500 ms

Раздача ведётся путём добавления новых серий, при каждом добавлении создаётся новый торрент. Чтобы начать докачку новой серии, пользователям необходимо сделать следующее:

- Остановить скачивание.
- Удалить старый торрент у себя из клиента (старые серии удалять не надо).
- Скачать новый торрент и запустить его у себя в клиенте вместо старого, при этом указать клиенту путь в старую папку куда и должно происходить скачивание новых серий.

Ваш клиент при этом должен произвести хеширование (проверку) старой папки (если не производит сам - помогите ему сделать это), и будет докачивать только те серии которых у вас ещё нет. Старые серии при этом не удаляются, а продолжают раздаваться!
Если вы уже удалили старые серии, то предотвратить повторную закачку старых серий можно, отжав галочку в соответствующих местах при запуске нового торрента. По возможности, желательно не удалять старые серии как можно дольше, чтобы релизер не столько продолжал раздавать старые серии, а смог сконцентрироваться на новых.
pb.wtf



Скачать Город невест через торрент http://lostpix.com/img/2020-02/17/qxm3g60uihkf0s0lq8n79ac6i.jpg Скачать фильм Город невест через торрент бесплантно в хорошем качестве Описание: Город Иваново – «текстильная столица» России, «город невест». Здесь живут и работают на ткацкой фабрике четыре подруги – Настя, ... 9.8 10 10
Торрент: Зарегистрирован [2020-02-20 13:29] · скачан: 100 раз
Статус: √ проверено
Размер: 5.21 GB
Как cкачать? Как скачать Город невест через торрент | qTorrent

% Раздел Тема Автор DL S | L
Наши сериалы [ 10.7 GB ] Город невест / Сезон: 1 / Серии: 1-8 из 8 [2020 HDTVRip 720p] bober100 Скачать
2 | 0
Наши сериалы [ 22.16 GB ] Город невест / Сезон: 1 / Серии: 1-8 из 8 [2020 HDTV 1080i] bober100 Скачать
1 | 0

28-11-2019 20:33  

Отключить всю рекламу на сайте

    Дорогой пользователь! Огромная просьба, поблагодарите релизера, оцените раздачу и оставьте свои комментарий, если Вы скачали Город невест через торрент бесплатно! Внесите свою лепту в развитие PiratBit!
    Комментировать посты могут только пользователи прошедшие не сложную регистрацию
    Показать сообщения:    

    Город невест через торрент
    Скачать бесплатно Город невест
    Город невест скачать торрент
    Город невест смотреть онлайн
    Cкачать фильм Город невест бесплатно
    Город невест скачать торрент в хорошем качестве
    Город невест смотреть онлайн бесплатно в хорошем качестве


    Вы не можете начинать темы
    Вы не можете отвечать на сообщения
    Вы не можете редактировать свои сообщения
    Вы не можете удалять свои сообщения
    Вы не можете голосовать в опросах
    Вы не можете прикреплять файлы к сообщениям
    Вы можете скачивать файлы