Ссылка на приватное зеркало нашего сайта всего за 1$. Внимание количество ограничено!!!

2 сезон

iTunes

1 сезон

1

iTunes

iTunes

iTunes

1 сезон

RePack

30

ИГРА 18+

pack

ВАЖНО

!!Акция!!

Alien_RageХит недели

RePack

MK11
pack

Забери бонус

RePack

jed

!!Акция!!

Alien_Rage

RePack

fifa19

RePack

Assassins Creed: Odyssey

RePack

NEED FOR SPEED™ PAYBACK

4 сезон

9 сезон

Бесстыжие 9 сезон

Все сериалы

все сериалы на PB.wtf

RePack

FAR CRY 5
  

Чужая жизнь / Серии: 1-4 из 4 (Игорь Кечаев) [2020, Мелодрама, WEB-DLRip] pb.wtf

Чужая жизнь через торрент pb.wtf

Размер: 2.44 GB | Добавлен: 8 мес. назад | Торрент скачан:10 раз
Скачать  

18-02-2020 08:03 Чужая жизнь Скачать торрент  

Чужая жизнь Год выпуска: 2020
Страна: Россия
Жанр: Мелодрама
Продолжительность: ~ 00:45:00
Субтитры: отсутствуют

Режиссер: Игорь Кечаев

В ролях: Ксения Князева, Артем Карасев, Александр Пашков, Павел Галич, Анна Карышева

Описание: Елена – преуспевающая бизнесвумен, руководитель компании по производству соков. В ее жизни все прекрасно. Она собирается выйти замуж за успешного предпринимателя Евгения. Однажды, спеша к нему на встречу, Елена становится невольной виновницей ДТП...

Качество: WEB-DLRip
Формат: AVI

Видео: XviD, ~ 1 601 Кбит/с, 720x400, 25 кадр/с
Аудио: 48.0 kHz, AC3 Dolby Digital, 2/0 (L,R) ch, ~ 192 kbps
скриншот  скриншот  скриншот  скриншот  

General
Complete name: H:\fiiles x\Чужая жизнь..2019.WEB-DLRip.Files-x\01 Чужая жизнь..2019.WEB-DLRip.Files-x.avi
Format: AVI
Format/Info: Audio Video Interleave
File size: 630 MiB
Duration: 48mn 53s
Overall bit rate: 1 803 Kbps
Writing application: VirtualDubMod 1.5.10.3 | www.virtualdub-fr.org || (build 2550/release)
Writing library: VirtualDubMod build 2550/release

Video
ID: 0
Format: MPEG-4 Visual
Format profile: Advanced Simple@L5
Format settings, BVOP: 1
Format settings, QPel: No
Format settings, GMC: No warppoints
Format settings, Matrix: Custom
Codec ID: XVID
Codec ID/Hint: XviD
Duration: 48mn 53s
Bit rate: 1 601 Kbps
Width: 720 pixels
Height: 400 pixels
Display aspect ratio: 16:9
Frame rate: 25.000 fps
Color space: YUV
Chroma subsampling: 4:2:0
Bit depth: 8 bits
Scan type: Progressive
Compression mode: Lossy
Bits/(Pixel*Frame): 0.222
Stream size: 560 MiB (89%)
Writing library: XviD 73

Audio
ID: 1
Format: AC-3
Format/Info: Audio Coding 3
Mode extension: CM (complete main)
Codec ID: 2000
Duration: 48mn 53s
Bit rate mode: Constant
Bit rate: 192 Kbps
Channel(s): 2 channels
Channel positions: Front: L R
Sampling rate: 48.0 KHz
Bit depth: 16 bits
Compression mode: Lossy
Stream size: 67.1 MiB (11%)
Alignment: Split accross interleaves
Interleave, duration: 40 ms (1.00 video frame)
Interleave, preload duration: 500 ms

pb.wtf



Скачать Чужая жизнь через торрент http://lostpix.com/img/2020-02/17/4tledme8s7b8s1v5j971s23yf.jpg Скачать фильм Чужая жизнь через торрент бесплантно в хорошем качестве Описание: Елена – преуспевающая бизнесвумен, руководитель компании по производству соков. В ее жизни все прекрасно. Она собирается выйти ... 10 10 4
Торрент: Зарегистрирован [2020-02-18 08:03] · скачан: 10 раз
Статус: √ проверено
Размер: 2.44 GB
Как cкачать? Как скачать Чужая жизнь через торрент | qTorrent

% Раздел Тема Автор DL S | L
Наши сериалы [ 2.42 GB ] Чужая жизнь / Серии: 1-4 из 4 [2020 Мело WEB-DLRip-AVC] bober100 Скачать
1 | 0
Наши сериалы [ 7.05 GB ] Чужая жизнь / Серии: 1-4 из 4 [2020 Мело WEB-DL 1080p] bober100 Скачать
1 | 0
Наши сериалы [ 2.43 GB ] Чужая жизнь / Серии: 1-4 из 4 [2020 Мело SATRip] bober100 Скачать
1 | 0

28-11-2019 20:33  

Отключить всю рекламу на сайте

    Дорогой пользователь! Огромная просьба, поблагодарите релизера, оцените раздачу и оставьте свои комментарий, если Вы скачали Чужая жизнь через торрент бесплатно! Внесите свою лепту в развитие PiratBit!
    Комментировать посты могут только пользователи прошедшие не сложную регистрацию
    Показать сообщения:    

    Чужая жизнь через торрент
    Скачать бесплатно Чужая жизнь
    Чужая жизнь скачать торрент
    Чужая жизнь смотреть онлайн
    Cкачать фильм Чужая жизнь бесплатно
    Чужая жизнь скачать торрент в хорошем качестве
    Чужая жизнь смотреть онлайн бесплатно в хорошем качестве


    Вы не можете начинать темы
    Вы не можете отвечать на сообщения
    Вы не можете редактировать свои сообщения
    Вы не можете удалять свои сообщения
    Вы не можете голосовать в опросах
    Вы не можете прикреплять файлы к сообщениям
    Вы можете скачивать файлы