Доктор Стрэндж

Лицензия

Добыча

MVO

Дом дракона

1 сезон

Тор

Лицензия

Мэверик

Лицензия

Там, где раки поют

MVO

Властелин колец

1 сезон

Ultimate

pack

Рекомендуем

30

Repack

ВАЖНО

ВАЖНО

Ghostwire

RePack

jed

RePack

nioh2

RePack

RDR2

RePack

NEED FOR SPEED™ PAYBACK

RePack

скачать торрент

Кинопоиск HD

Острые козырьки 6 сезон

6 сезон

FAR CRY 6

RePack

скачать торрент

Лицензия

скачать торрент

MVO

1

1 сезон

скачать торрент

1 сезон

скачать торрент

Лицензия

  

Чужая жизнь / Серии: 1-4 из 4 (Игорь Кечаев) [2020, Мелодрама, WEB-DL 1080p]

Чужая жизнь через торрент pb.wtf

Размер: 7.05 GB | Добавлен: 2 года 7 мес. назад | Торрент скачан:27 раз
Смотреть онлайн | Скачать   

18-02-2020 08:03 Чужая жизнь Скачать торрент  

Чужая жизнь Год выпуска: 2020
Страна: Россия
Жанр: Мелодрама
Продолжительность: ~ 00:45:00
Субтитры: отсутствуют

Режиссер: Игорь Кечаев

В ролях: Ксения Князева, Артем Карасев, Александр Пашков, Павел Галич, Анна Карышева

Описание: Елена – преуспевающая бизнесвумен, руководитель компании по производству соков. В ее жизни все прекрасно. Она собирается выйти замуж за успешного предпринимателя Евгения. Однажды, спеша к нему на встречу, Елена становится невольной виновницей ДТП...

Качество: WEB-DL 1080p
Формат: MKV

Видео: MPEG4 AVC Video, H264, 16:9, 1920x1080, 25 fps, ~4900 kbps, 0.095 bit/pixel
Аудио: 48.0 kHz, AC3 Dolby Digital, 2/0 (L,R) ch, ~ 192 kbps
скриншот  скриншот  скриншот  скриншот  скриншот  

General
Unique ID : 253484819876937301346086540543145505789 (0xBEB366877C8AE1D58DD00CF0452373FD)
Complete name : D:\Chuzhaya.zhizn.2019.WEB-DL.(1080p).Getty\Chuzhaya.zhizn.e01.2019.WEB-DL.(1080p).Getty.mkv
Format : Matroska
Format version : Version 2
File size : 1.78 GiB
Duration : 48 min 53 s
Overall bit rate mode : Variable
Overall bit rate : 5 226 kb/s
Encoded date : UTC 2020-02-17 17:33:15
Writing application : mkvmerge v4.0.0 ('The Stars were mine') сборка от Jun 6 2010 16:18:42
Writing library : libebml v1.0.0 + libmatroska v1.0.0

Video
ID : 1
Format : AVC
Format/Info : Advanced Video Codec
Format profile : [email protected]
Format settings : CABAC / 5 Ref Frames
Format settings, CABAC : Yes
Format settings, ReFrames : 5 frames
Codec ID : V_MPEG4/ISO/AVC
Duration : 48 min 53 s
Bit rate mode : Variable
Bit rate : 4 930 kb/s
Maximum bit rate : 40.0 Mb/s
Width : 1 920 pixels
Height : 1 080 pixels
Display aspect ratio : 16:9
Frame rate mode : Constant
Frame rate : 25.000 FPS
Color space : YUV
Chroma subsampling : 4:2:0
Bit depth : 8 bits
Scan type : Progressive
Bits/(Pixel*Frame) : 0.095
Stream size : 1.68 GiB (94%)
Language : Russian
Default : Yes
Forced : No

Audio
ID : 2
Format : AC-3
Format/Info : Audio Coding 3
Codec ID : A_AC3
Duration : 48 min 53 s
Bit rate mode : Constant
Bit rate : 192 kb/s
Channel(s) : 2 channels
Channel positions : Front: L R
Sampling rate : 48.0 kHz
Frame rate : 31.250 FPS (1536 SPF)
Bit depth : 16 bits
Compression mode : Lossy
Stream size : 67.1 MiB (4%)
Language : Russian
Service kind : Complete Main
Default : Yes
Forced : No




Скачать Чужая жизнь через торрент http://lostpix.com/img/2020-02/17/4tledme8s7b8s1v5j971s23yf.jpg Скачать, смотреть онлайн Чужая жизнь бесплантно в хорошем качестве Описание: Елена – преуспевающая бизнесвумен, руководитель компании по производству соков. В ее жизни все прекрасно. Она собирается выйти ... 10 10 2
Торрент: Зарегистрирован [2020-02-18 08:03] · скачан: 27 раз
Статус: √ проверено
Размер: 7.05 GB
Как cкачать? Как скачать Чужая жизнь через торрент | UTorrent

% Раздел Тема Автор DL S | L
Наши сериалы [ 2.42 GB ] Чужая жизнь / Серии: 1-4 из 4 | | DLRip-AVC bober100 Скачать
1 | 0
Наши сериалы [ 2.44 GB ] Чужая жизнь / Серии: 1-4 из 4 | | DLRip bober100 Скачать
1 | 0
Наши сериалы [ 2.43 GB ] Чужая жизнь / Серии: 1-4 из 4 | | SATRip bober100 Скачать
1 | 0

28-11-2019 20:33  


Отключить вcю реклaмy на сайте, в т.ч. и в плеере онлайн просмотра!

    Дорогой пользователь! Огромная просьба, поблагодарите релизера, оцените раздачу и оставьте свои комментарий, если Вы скачали Чужая жизнь через торрент бесплатно!!
    Комментировать посты могут только пользователи прошедшие не сложную регистрацию
    Показать сообщения:    


    Чужая жизнь через торрент
    Скачать бесплатно Чужая жизнь
    Чужая жизнь скачать торрент
    Чужая жизнь смотреть онлайн
    Cкачать фильм Чужая жизнь бесплатно
    Чужая жизнь скачать торрент в хорошем качестве
    Чужая жизнь смотреть онлайн бесплатно в хорошем качестве
    Вы не можете начинать темы
    Вы не можете отвечать на сообщения
    Вы не можете редактировать свои сообщения
    Вы не можете удалять свои сообщения
    Вы не можете голосовать в опросах
    Вы не можете прикреплять файлы к сообщениям
    Вы можете скачивать файлы