Ссылка на приватное зеркало нашего сайта всего за 1$. Внимание количество ограничено!!!

2 сезон

iTunes

1 сезон

1

2 сезон

2 сезон

iTunes

1 сезон

RePack

30

Ultimate

ВАЖНО

ИГРА 18+

pack

RePack

MK11
pack

Забери бонус

RePack

jed

!!Акция!!

Alien_Rage

RePack

fifa19

RePack

Assassins Creed: Odyssey

RePack

NEED FOR SPEED™ PAYBACK

4 сезон

9 сезон

Бесстыжие 9 сезон

Все сериалы

все сериалы на PB.wtf

RePack

FAR CRY 5
  

Злодеи / Villains (Дэн Берк, Роберт Ольсен) [2019, Ужасы, триллер, драма, комедия, BD Remux 1080p] DUB [iTunes] pb.wtf

Злодеи через торрент pb.wtf

Раздают: 1 [ 0 KB/s ]
Размер: 11.36 GB | Добавлен: 9 мес. назад | Торрент скачан:99 раз
Скачать  

19-02-2020 01:18 Злодеи Скачать торрент  

Злодеи | Villains
Год выпуска: 2019
Страна: США
Студия: BRON Studios, Star Thrower Entertainment, Creative Wealth Media Finance
Жанр: Ужасы, триллер, драма, комедия
Продолжительность: 01:29:46
Перевод: Дублированный | iTunes
Субтитры: Русские (Full), английские

Режиссер: Дэн Берк, Роберт Ольсен

rating

В ролях: Билл Скарсгард, Майка Монро, Джеффри Донован, Кира Седжвик, Блейк Баумгартнер, Ной Роббинс, Дэнни Джонсо

Описание: Ограбив бензоколонку и удирая на машине, молодая парочка Микки и Джули через пару километров обнаруживает, что посреди пустынной лесной дороги у них закончился бензин. За неимением лучших вариантов они залезают в удачно подвернувшийся дом, где в подвале обнаруживают девочку на цепи. А вскоре возвращаются хозяева, пожилая семейная пара, и наша четвёрка оказывается во взаимно невыгодной ситуации.

Качество: BD Remux 1080p
Формат: MKV

Видео: MPEG-4 AVC, 1920x1080, 14.8 Mbit/s, 23.976 fps
Аудио #01: 48 kHz, AC3, 5.1, 384 Kbps | iTunes | RUS |
Аудио #02: 48 kHz, DTS-HD MA, 5.1, 2946 Kbps | Оригинал | ENG |
скриншот  скриншот  скриншот  скриншот  скриншот  

General
Unique ID : 4274070143499846226394551609683416410 (0x33727ED7A62CF4850035950A2C5155A)
Complete name : E:Video111Villains.2019.BDREMUX.1080p.seleZen.mkv
Format : Matroska
Format version : Version 4
File size : 11.4 GiB
Duration : 1 h 29 min
Overall bit rate mode : Variable
Overall bit rate : 18.1 Mb/s
Movie name : Villains 2019 from селезень
Encoded date : UTC 2020-02-18 22:19:55
Writing application : mkvmerge v40.0.0 ('Old Town Road + Pony') 64-bit
Writing library : libebml v1.3.9 + libmatroska v1.5.2

Video
ID : 1
Format : AVC
Format/Info : Advanced Video Codec
Format profile : High@L4.1
Format settings : CABAC / 2 Ref Frames
Format settings, CABAC : Yes
Format settings, Reference : 2 frames
Format settings, GOP : M=1, N=5
Codec ID : V_MPEG4/ISO/AVC
Duration : 1 h 29 min
Bit rate mode : Variable
Bit rate : 14.8 Mb/s
Maximum bit rate : 32.2 Mb/s
Width : 1 920 pixels
Height : 1 080 pixels
Display aspect ratio : 16:9
Frame rate mode : Constant
Frame rate : 23.976 (24000/1001) FPS
Color space : YUV
Chroma subsampling : 4:2:0
Bit depth : 8 bits
Scan type : Progressive
Bits/(Pixel*Frame) : 0.297
Stream size : 9.27 GiB (82%)
Language : English
Default : Yes
Forced : No

Audio #1
ID : 2
Format : AC-3
Format/Info : Audio Coding 3
Commercial name : Dolby Digital
Codec ID : A_AC3
Duration : 1 h 29 min
Bit rate mode : Constant
Bit rate : 384 kb/s
Channel(s) : 6 channels
Channel layout : L R C LFE Ls Rs
Sampling rate : 48.0 kHz
Frame rate : 31.250 FPS (1536 SPF)
Compression mode : Lossy
Delay relative to video : 15 ms
Stream size : 247 MiB (2%)
Title : iTunes
Language : Russian
Service kind : Complete Main
Default : Yes
Forced : Yes

Audio #2
ID : 3
Format : DTS XLL
Format/Info : Digital Theater Systems
Commercial name : DTS-HD Master Audio
Codec ID : A_DTS
Duration : 1 h 29 min
Bit rate mode : Variable
Bit rate : 2 946 kb/s
Channel(s) : 6 channels
Channel layout : C L R Ls Rs LFE
Sampling rate : 48.0 kHz
Frame rate : 93.750 FPS (512 SPF)
Bit depth : 24 bits
Compression mode : Lossless
Stream size : 1.85 GiB (16%)
Title : Original
Language : English
Default : No
Forced : No

Text #1
ID : 4
Format : UTF-8
Codec ID : S_TEXT/UTF8
Codec ID/Info : UTF-8 Plain Text
Duration : 1 h 29 min
Bit rate : 78 b/s
Count of elements : 1082
Stream size : 51.5 KiB (0%)
Title : Full
Language : Russian
Default : No
Forced : No

Text #2
ID : 5
Format : UTF-8
Codec ID : S_TEXT/UTF8
Codec ID/Info : UTF-8 Plain Text
Duration : 1 h 24 min
Bit rate : 62 b/s
Count of elements : 1292
Stream size : 38.6 KiB (0%)
Title : Full
Language : English
Default : No
Forced : No

Menu
00:00:00.000 : en:Chapter 1
00:03:10.732 : en:Chapter 2
00:10:35.467 : en:Chapter 3
00:15:13.703 : en:Chapter 4
00:22:59.294 : en:Chapter 5
00:29:21.425 : en:Chapter 6
00:37:47.931 : en:Chapter 7
00:46:39.629 : en:Chapter 8
00:54:07.618 : en:Chapter 9
01:01:24.471 : en:Chapter 10
01:08:48.999 : en:Chapter 11
01:12:15.288 : en:Chapter 12
01:19:56.749 : en:Chapter 13
01:22:31.779 : en:Chapter 14

pb.wtf



Скачать Злодеи через торрент https://img10.lostpic.net/2020/02/19/360bc3c8f6b7ee432c3b339517d2f512.jpg Скачать фильм Злодеи через торрент бесплантно в хорошем качестве Описание: Ограбив бензоколонку и удирая на машине, молодая парочка Микки и Джули через пару километров обнаруживает, что посреди пустынной ... 10 10 6
Торрент: Зарегистрирован [2020-02-19 01:18] · скачан: 99 раз
Статус: √ проверено
Размер: 11.36 GB
Как cкачать? Как скачать Злодеи через торрент | qTorrent

% Раздел Тема Автор DL S | L
Порно фильмы HD [ 6.01 GB ] Рыцари Лондона : Герои И Злодеи / London Knights: A Heroes and Villains XXX Parody [2016 Feature Parody WEB-DL 1080p Оригинальный] DJASFUL Скачать
1 | 0
Фильмы 2019-2020 [DVDrip, WEB-DLRip, HDrip] (DUB, MVO) [ 1.42 GB ] Злодеи / Villains [2019 BDRip] - Twi7ter Скачать
8 | 0
Фильмы 2019-2020 [DVDrip, WEB-DLRip, HDrip] (DUB, MVO) [ 1.42 GB ] Злодеи / Villains [2019 BDRip] bober100 Скачать
1 | 0
Фильмы [HD 720p, 1080p] (Хороший звук DUB, MVO) [ 2.84 GB ] Злодеи / Villains [2019 BDRip 720p] bober100 Скачать
1 | 0
Фильмы с авторской озвучкой [ 1.46 GB ] Злодеи / Villains [2019 WEB-DLRip] AVO Леонид Ильич Скачать
1 | 0
National Geographic [ 1.18 GB ] National Geographic: Осушить океан: злодеи преступного мира / Drain the Oceans. Villains of the Underworld [2017 ДокументальныйHDTVRip ] Armstrong Скачать
1 | 0
Порно фильмы с сюжетом [ 1.58 GB ] Рыцари Лондона: Герои и Злодеи XXX Породия / London Knights: A Heroes and Villains XXX Parody [2016 Feature Parody WEB-DLRip Оригинальный] DJASFUL Скачать
1 | 0

28-11-2019 20:33  

Отключить всю рекламу на сайте

    Дорогой пользователь! Огромная просьба, поблагодарите релизера, оцените раздачу и оставьте свои комментарий, если Вы скачали Злодеи через торрент бесплатно! Внесите свою лепту в развитие PiratBit!
    Комментировать посты могут только пользователи прошедшие не сложную регистрацию
    Показать сообщения:    

    Злодеи через торрент
    Скачать бесплатно Злодеи
    Злодеи скачать торрент
    Злодеи смотреть онлайн
    Cкачать фильм Злодеи бесплатно
    Злодеи скачать торрент в хорошем качестве
    Злодеи смотреть онлайн бесплатно в хорошем качестве


    Вы не можете начинать темы
    Вы не можете отвечать на сообщения
    Вы не можете редактировать свои сообщения
    Вы не можете удалять свои сообщения
    Вы не можете голосовать в опросах
    Вы не можете прикреплять файлы к сообщениям
    Вы можете скачивать файлы