2 сезон

iTunes

1 сезон

1

iTunes

iTunes

iTunes

1 сезон

RePack

30

ИГРА 18+

pack

ВАЖНО

!!Акция!!

Alien_RageХит недели

RePack

MK11
pack

Забери бонус

RePack

jed

!!Акция!!

Alien_Rage

RePack

fifa19

RePack

Assassins Creed: Odyssey

RePack

NEED FOR SPEED™ PAYBACK

4 сезон

9 сезон

Бесстыжие 9 сезон

Все сериалы

все сериалы на PB.wtf

RePack

FAR CRY 5
  

Бандитский Петербург / 1-3 сезоны: 1-23 серии из 23 (Владимир Бортко) [2000-2001 г., драма, криминал, WEB-DLRip] pb.wtf

Бандитский Петербург через торрент pb.wtf

Размер: 16.26 GB | Добавлен: 8 мес. назад | Торрент скачан:65 раз
Скачать  

19-02-2020 10:02 Бандитский Петербург Скачать торрент  

Бандитский Петербург
1-3 сезоны: 1-23 серии из 23
Год выпуска: 2000-2001

Страна: Россия

Жанр: Драма, криминал

Продолжительность: 23 x ~ 00:50:00

Режиссер: Владимир Бортко



В ролях: Кирилл Лавров, Александр Домогаров ст., Дмитрий Певцов, Ольга Дроздова, Лев Борисов, Алексей Серебряков, Олег Басилашвили, Зинаида Шарко, Армен Джигарханян, Пётр Вельяминов, Елена Драпеко, Станислав Ландграф, Алексей Девотченко, Юлия Михайлова, Юрий Ковалёв, Сергей Барковский, Анатолий Петров, Наталья Круглова, Владимир Литвинов, Александр Лыков, Виктор Сухоруков, Евгений Сидихин, Андрей Толубеев, Николай Рудик, Евгения Крюкова, Игорь Лифанов, Евгений Дятлов, Михаил Пореченков, Андрей Краско, Анастасия Мельникова, Лев Дуров, Ксения Раппопорт, Юрий Тарасов, Рудольф Фурманов, Ольга Понизова, Станислав Садальский
Бандитский Петербург. Барон: Вор в законе Юрий Михеев по прозвищу «Барон» вместе с напарником грабят квартиру наполненную антиквариатом квартиру Михаила Монахова — приближенного к бандитским структурам банкира и помощника депутата. Вместе с драгоценностями они выносят картину кисти Рембрандта «Эгина». Барон говорит напарнику, что это хорошая копия, понимая, что на самом деле это подлинник, похищенный из Эрмитажа. Вскоре Барон попадает в тюрьму. В тюрьме он завещает журналисту Андрею Серегину, пишущему на криминальные темы, забрать картину у своей женщины и вернуть её в Эрмитаж. Серегин берется за расследование в одиночку. Бандиты, боясь, что история с фальшивкой висящей в Эрмитаже может всплыть, всеми силами стараются не допустить этого. Серегину остается идти до конца в своих поисках.

Бандитский Петербург-2. Адвокат: История о судьбах двух университетских друзей, влюбленных в одну девушку. Один после Афганистана попадает в преступную группировку. Другой стал следователем, но ушёл из прокуратуры, пытаясь всеми средствами найти убийцу своих родителей. Для этого он даже сам стал работать на влиятельную преступную группировку в Питере. Через многое пришлось пройти героям: преданность и предательство, любовь и ненависть, отчаяние и сострадание, жестокую безжалостную борьбу за выживание. Нелегким будет их окончательный выбор.

Бандитский Петербург-3. Крах Антибиотика: Главного криминального авторитета — Антибиотика, казалось бы, виртуозного и неуловимого гения преступного мира, неуязвимого для пули, ножа и властей, рано или поздно должно настигнуть возмездие. Журналист Серегин, действующий на свой страх и риск, нарушает зыбкое равновесие между банд кланами города и приводит в действие бандитскую мясорубку. В центре ее оказывается сверх осторожный Антибиотик.

Качество: WEB-DLRip
Формат: AVI
Видео: XviD, ~ 1799 Кбит/с, 720x544
Аудио: Русский, AC-3, 2 ch, 192 Кбит/с
Видео
Идентификатор : 0
Формат : MPEG-4 Visual
Профиль формата : Advanced Simple@L5
Настройки формата : BVOP2
Параметр BVOP формата : 2
Параметр QPel формата : Нет
Параметр GMC формата : Без точки перехода
Параметр матрицы формата : Default (H.263)
Идентификатор кодека : XVID
Идентификатор кодека/Подсказка : XviD
Продолжительность : 52 м. 30 с.
Битрейт : 1799 Кбит/сек
Ширина : 720 пикселей
Высота : 544 пикселя
Соотношение сторон : 4:3
Частота кадров : 25,000 кадров/сек
Цветовое пространство : YUV
Субдискретизация насыщенности : 4:2:0
Битовая глубина : 8 бит
Тип развёртки : Прогрессивная
Метод сжатия : С потерями
Бит/(Пиксели*Кадры) : 0.184
Размер потока : 676 Мбайт (90%)
Библиотека кодирования : XviD 73

Аудио
Идентификатор : 1
Формат : AC-3
Формат/Информация : Audio Coding 3
Коммерческое название : Dolby Digital
Идентификатор кодека : 2000
Продолжительность : 52 м. 30 с.
Вид битрейта : Постоянный
Битрейт : 192 Кбит/сек
Каналы : 2 канала
ChannelLayout : L R
Частота : 48,0 КГц
Частота кадров : 31,250 кадров/сек (1536 SPF)
Битовая глубина : 16 бит
Метод сжатия : С потерями
Размер потока : 72,1 Мбайт (10%)
Выравнивание : Разделение по промежуткам
Продолжительность промежутка : 40 мс. (1,00 видеокадр)
Время предзагрузки промежутка : 500 мс.
ServiceKind/String : Complete Main

скриншот   скриншот   скриншот   скриншот  

pb.wtf



Скачать Бандитский Петербург через торрент http://pic1.kartinco.top/images/12/uu4pg.jpg Скачать фильм Бандитский Петербург через торрент бесплантно в хорошем качестве В ролях: Кирилл Лавров, Александр Домогаров ст., Дмитрий Певцов, Ольга Дроздова, Лев Борисов, Алексей Серебряков, Олег Басилашвили, Зинаида ... 10 10 3
Info! Золотая раздача, скачанное не засчитывается.
Торрент: Зарегистрирован [2020-02-19 10:02] · скачан: 65 раз
Статус: √ проверено
Размер: 16.26 GB
Как cкачать? Как скачать Бандитский Петербург через торрент | qTorrent

28-11-2019 20:33  

Отключить всю рекламу на сайте

19-02-2020 11:09 Бандитский Петербург Скачать торрент  

сериал супер!!!pb.wtf



19-02-2020 18:42 Бандитский Петербург Скачать торрент  

в принципе, советую все посмотреть, там по моему 10 частей, но первые 3 топpb.wtf



    Дорогой пользователь! Огромная просьба, поблагодарите релизера, оцените раздачу и оставьте свои комментарий, если Вы скачали Бандитский Петербург через торрент бесплатно! Внесите свою лепту в развитие PiratBit!
    Комментировать посты могут только пользователи прошедшие не сложную регистрацию
    Показать сообщения:    

    Бандитский Петербург через торрент
    Скачать бесплатно Бандитский Петербург
    Бандитский Петербург скачать торрент
    Бандитский Петербург смотреть онлайн
    Cкачать фильм Бандитский Петербург бесплатно
    Бандитский Петербург скачать торрент в хорошем качестве
    Бандитский Петербург смотреть онлайн бесплатно в хорошем качестве


    Вы не можете начинать темы
    Вы не можете отвечать на сообщения
    Вы не можете редактировать свои сообщения
    Вы не можете удалять свои сообщения
    Вы не можете голосовать в опросах
    Вы не можете прикреплять файлы к сообщениям
    Вы можете скачивать файлы