Ссылка на приватное зеркало нашего сайта всего за 1$. Внимание количество ограничено!!!

2 сезон

iTunes

1 сезон

1

2 сезон

2 сезон

iTunes

1 сезон

RePack

30

Ultimate

ВАЖНО

ИГРА 18+

pack

RePack

MK11
pack

Забери бонус

RePack

jed

!!Акция!!

Alien_Rage

RePack

fifa19

RePack

Assassins Creed: Odyssey

RePack

NEED FOR SPEED™ PAYBACK

4 сезон

9 сезон

Бесстыжие 9 сезон

Все сериалы

все сериалы на PB.wtf

RePack

FAR CRY 5
  

Тело Христово / Boze Cialo (Ян Комаса / Jan Komasa) [2019, драма, Blu-Ray Remux 1080p] [Dub] [iTunes] pb.wtf

Тело Христово через торрент pb.wtf

Размер: 24.28 GB | Добавлен: 9 мес. назад | Торрент скачан:16 раз
Скачать  

19-02-2020 14:10 Тело Христово Скачать торрент  

Тело Христово / Boze Cialo


Год выпуска: 2019
Страна: Польша
Жанр: драма
Продолжительность: 01:54:59
Перевод: Профессиональный (дублированный) | iTunes
Субтитры: Русские, английские, польские

Режиссер: Ян Комаса / Jan Komasa
В ролях: Бартош Беленя, Александра Конечна, Элиза Рыцембель, Томаш Зетэк, Барбара Кужай, Лешек Лихота, Здзисвав Вардейн, Лукаш Симлат, Анна Берначик, Лидия Богач
Описание: 20-летний Даниэль, переживший в заключении духовное перерождение, мечтает посвятить себя служению богу, однако судимость за плечами этому препятствует. Воспользовавшись случаем, он выдает себя за выпускника семинарии и занимает место заболевшего пастора в приходе небольшого провинциального городка. Зачастую импровизируя и замещая недостаток знаний в литургии искренностью и неподдельной страстью, он невольно становится центром притяжения и умиротворения для местной паствы, расколотой и разобщенной вследствие недавней трагедии. Но ни одно доброе дело не остается безнаказанным.
rating

Качество видео: Blu-Ray Remux (1080p)
Формат видео: MKV
Видео: MPEG-4 AVC, 28.0 Мбит/с, 1920x1080, 24 кадр/с, 8 бит
Аудио 1: 48 kHz, AC3 Dolby Digital, 3/2 (L,C,R,l,r) + LFE ch, ~384 kbps - DUB
Аудио 2: 48 kHz, DTS HD-MA, 6 ch, 1840 Кбит/с - POL




Общее
Уникальный идентификатор : 321659721035214129718162856679235986454 (0xF1FD68AB57F86CCC7C664762AA412416)
Полное имя : Boze Cialo a.k.a. Corpus Christi 2019 1080p Blu-ray Remux.Fatum200.mkv
Формат : Matroska
Версия формата : Version 4
Размер файла : 24,3 Гбайт
Продолжительность : 1 ч. 54 м.
Режим общего битрейта : Переменный
Общий поток : 30,2 Мбит/сек
Название фильма : Boze Cialo a.k.a. Corpus Christi 2019 1080p Blu-ray Remux.Fatum200
Дата кодирования : UTC 2020-02-18 23:22:37
Программа кодирования : mkvmerge v43.0.0 ('The Quartermaster') 64-bit
Библиотека кодирования : libebml v1.3.10 + libmatroska v1.5.2

Видео
Идентификатор : 1
Формат : AVC
Формат/Информация : Advanced Video Codec
Профиль формата : High@L4.1
Настройки формата : CABAC / 4 Ref Frames
Параметр CABAC формата : Да
Параметр RefFrames формата : 4 кадра
Параметр GOP формата : M=3, N=24
Идентификатор кодека : V_MPEG4/ISO/AVC
Продолжительность : 1 ч. 54 м.
Вид битрейта : Переменный
Битрейт : 28,0 Мбит/сек
Максимальный битрейт : 35,0 Мбит/сек
Ширина : 1920 пикселей
Высота : 1080 пикселей
Соотношение сторон : 16:9
Режим частоты кадров : Постоянный
Частота кадров : 24,000 кадра/сек
Стандарт вещания : NTSC
Цветовое пространство : YUV
Субдискретизация насыщенности : 4:2:0
Битовая глубина : 8 бит
Тип развёртки : Прогрессивная
Бит/(Пиксели*Кадры) : 0.563
Размер потока : 22,5 Гбайт (93%)
Default : Да
Forced : Нет
Цветовой диапазон : Limited
Основные цвета : BT.709
Характеристики трансфера : BT.709
Коэффициенты матрицы : BT.709

Аудио #1
Идентификатор : 2
Формат : DTS XLL
Формат/Информация : Digital Theater Systems
Коммерческое название : DTS-HD Master Audio
Идентификатор кодека : A_DTS
Продолжительность : 1 ч. 54 м.
Вид битрейта : Переменный
Битрейт : 1840 Кбит/сек
Каналы : 6 каналов
ChannelLayout : C L R Ls Rs LFE
Частота : 48,0 КГц
Частота кадров : 93,750 кадра/сек (512 SPF)
Битовая глубина : 16 бит
Метод сжатия : Без потерь
Размер потока : 1,48 Гбайт (6%)
Язык : Polish
Default : Да
Forced : Нет

Аудио #2
Идентификатор : 4
Формат : AC-3
Формат/Информация : Audio Coding 3
Коммерческое название : Dolby Digital
Идентификатор кодека : A_AC3
Продолжительность : 1 ч. 54 м.
Вид битрейта : Постоянный
Битрейт : 384 Кбит/сек
Каналы : 6 каналов
ChannelLayout : L R C LFE Ls Rs
Частота : 48,0 КГц
Частота кадров : 31,250 кадров/сек (1536 SPF)
Метод сжатия : С потерями
Размер потока : 316 Мбайт (1%)
Заголовок : iTunes
Язык : Russian
ServiceKind/String : Complete Main
Default : Нет
Forced : Нет

Текст #1
Идентификатор : 3
Формат : PGS
Режим смешивания : zlib
Идентификатор кодека : S_HDMV/PGS
Идентификатор кодека/Информация : Picture based subtitle format used on BDs/HD-DVDs
Продолжительность : 1 ч. 53 м.
Битрейт : 22,2 Кбит/сек
ElementCount : 2022
Размер потока : 18,0 Мбайт (0%)
Заголовок : SDH
Язык : Polish
Default : Нет
Forced : Нет

Текст #2
Идентификатор : 5
Формат : UTF-8
Идентификатор кодека : S_TEXT/UTF8
Идентификатор кодека/Информация : UTF-8 Plain Text
Продолжительность : 1 ч. 49 м.
Битрейт : 62 бит/сек
ElementCount : 1005
Размер потока : 50,4 Кбайт (0%)
Заголовок : Russian Full
Язык : Russian
Default : Да
Forced : Нет

Текст #3
Идентификатор : 6
Формат : UTF-8
Идентификатор кодека : S_TEXT/UTF8
Идентификатор кодека/Информация : UTF-8 Plain Text
Продолжительность : 1 ч. 52 м.
Битрейт : 32 бит/сек
ElementCount : 975
Размер потока : 26,6 Кбайт (0%)
Заголовок : English Full
Язык : English
Default : Нет
Forced : Нет

Меню
00:00:00.000 : en:Chapter 01
00:07:59.542 : en:Chapter 02
00:14:26.583 : en:Chapter 03
00:21:54.708 : en:Chapter 04
00:28:14.958 : en:Chapter 05
00:36:55.167 : en:Chapter 06
00:43:01.750 : en:Chapter 07
00:50:56.750 : en:Chapter 08
00:57:42.833 : en:Chapter 09
01:04:43.917 : en:Chapter 10
01:10:48.292 : en:Chapter 11
01:19:52.417 : en:Chapter 12
01:25:52.208 : en:Chapter 13
01:33:54.458 : en:Chapter 14
01:41:39.375 : en:Chapter 15
01:49:30.167 : en:Chapter 16
скриншот  скриншот  скриншот  
pb.wtf



Скачать Тело Христово через торрент https://b.radikal.ru/b08/2002/6c/0916209d71ca.jpg Скачать фильм Тело Христово через торрент бесплантно в хорошем качестве Описание: 20-летний Даниэль, переживший в заключении духовное перерождение, мечтает посвятить себя служению богу, однако судимость за ... 9.4 10 5
Торрент: Зарегистрирован [2020-02-19 14:10] · скачан: 16 раз
Статус: √ проверено
Размер: 24.28 GB
Как cкачать? Как скачать Тело Христово через торрент | qTorrent

28-11-2019 20:33  

Отключить всю рекламу на сайте

    Дорогой пользователь! Огромная просьба, поблагодарите релизера, оцените раздачу и оставьте свои комментарий, если Вы скачали Тело Христово через торрент бесплатно! Внесите свою лепту в развитие PiratBit!
    Комментировать посты могут только пользователи прошедшие не сложную регистрацию
    Показать сообщения:    

    Тело Христово через торрент
    Скачать бесплатно Тело Христово
    Тело Христово скачать торрент
    Тело Христово смотреть онлайн
    Cкачать фильм Тело Христово бесплатно
    Тело Христово скачать торрент в хорошем качестве
    Тело Христово смотреть онлайн бесплатно в хорошем качестве


    Вы не можете начинать темы
    Вы не можете отвечать на сообщения
    Вы не можете редактировать свои сообщения
    Вы не можете удалять свои сообщения
    Вы не можете голосовать в опросах
    Вы не можете прикреплять файлы к сообщениям
    Вы можете скачивать файлы