Ссылка на приватное зеркало нашего сайта всего за 1$. Внимание количество ограничено!!!

2 сезон

iTunes

1 сезон

1

2 сезон

2 сезон

iTunes

1 сезон

RePack

30

Ultimate

ВАЖНО

ИГРА 18+

pack

RePack

MK11
pack

Забери бонус

RePack

jed

!!Акция!!

Alien_Rage

RePack

fifa19

RePack

Assassins Creed: Odyssey

RePack

NEED FOR SPEED™ PAYBACK

4 сезон

9 сезон

Бесстыжие 9 сезон

Все сериалы

все сериалы на PB.wtf

RePack

FAR CRY 5
  

Вальгалла: Рагнарёк / Valhalla (Фенар Ахмад) [2019, Фэнтези, триллер, приключения, WEB-DL 1080p] DUB [iTunes] pb.wtf

Вальгалла: Рагнарёк через торрент pb.wtf

Раздают: 1 [ 0 KB/s ]
Размер: 3.68 GB | Добавлен: 9 мес. назад | Торрент скачан:991 раз
Скачать  

19-02-2020 21:09 Вальгалла: Рагнарёк Скачать торрент  

Вальгалла: Рагнарёк | Valhalla
Год выпуска: 2019
Страна: Дания, Норвегия, Швеция, Исландия
Студия: Bulldozer Film, Danmarks Radio (DR), Det Danske Filminstitut, Film i Skåne, Nordisk Film A/S
Жанр: Фэнтези, триллер, приключения
Продолжительность: 01:45:02
Перевод: Дублированный | iTunes
Субтитры: отсутствуют

Режиссер: Фенар Ахмад

rating

В ролях: Роланд Мёллер, Дульфи Аль-Джабури, Сесилия Лоффредо, Саксо Мольтке-Лет, Асбьёрн Крог Ниссен, Стине Фишер Кристенсен, Саломе Гуннарсдоттир, Якоб Ульрик Ломанн, Патриция Шуманн, Андреас Йессен

Описание: Близится Рагнарек, и великие боги Асгарда собирают последние силы перед битвой. Двое смертных из Мидгарда вместе с Локи и Тором прибывают в небесный чертог накануне сражения. Вот-вот пробудится чудовищный волк Фенрир и древние исполины из Ётунхейма осадят стены Вальгаллы. Мир обречен. Но можно ли изменить предначертанное?

Качество: WEB-DL 1080p
Формат: MKV

Видео: MPEG-4 AVC, 1920x804, 4635 Kbit/s, 24 fps
Аудио: 48 kHz, AC3, 5.1, 384 Kbps | iTunes | RUS |
скриншот  скриншот  скриншот  скриншот  скриншот  

General
Unique ID : 115879246736054856326048928973669059788 (0x572D87F79FE149F5FB801EE6751CCCCC)
Complete name : E:Video111Valhalla.2019.WEB-DL.1080p.seleZen.mkv
Format : Matroska
Format version : Version 4
File size : 3.68 GiB
Duration : 1 h 45 min
Overall bit rate : 5 021 kb/s
Movie name : Valhalla 2019 from селезень
Encoded date : UTC 2020-02-19 20:55:20
Writing application : mkvmerge v40.0.0 ('Old Town Road + Pony') 64-bit
Writing library : libebml v1.3.9 + libmatroska v1.5.2

Video
ID : 1
Format : AVC
Format/Info : Advanced Video Codec
Format profile : High@L4
Format settings : CABAC / 5 Ref Frames
Format settings, CABAC : Yes
Format settings, Reference : 5 frames
Codec ID : V_MPEG4/ISO/AVC
Duration : 1 h 45 min
Bit rate : 4 635 kb/s
Width : 1 920 pixels
Height : 804 pixels
Display aspect ratio : 2.40:1
Frame rate mode : Constant
Frame rate : 24.000 FPS
Color space : YUV
Chroma subsampling : 4:2:0
Bit depth : 8 bits
Scan type : Progressive
Bits/(Pixel*Frame) : 0.125
Stream size : 3.40 GiB (92%)
Language : English
Default : Yes
Forced : No
Color range : Limited
Color primaries : BT.709
Transfer characteristics : BT.709
Matrix coefficients : BT.709

Audio
ID : 2
Format : AC-3
Format/Info : Audio Coding 3
Commercial name : Dolby Digital
Codec ID : A_AC3
Duration : 1 h 45 min
Bit rate mode : Constant
Bit rate : 384 kb/s
Channel(s) : 6 channels
Channel layout : L R C LFE Ls Rs
Sampling rate : 48.0 kHz
Frame rate : 31.250 FPS (1536 SPF)
Compression mode : Lossy
Stream size : 289 MiB (8%)
Title : iTunes
Language : Russian
Service kind : Complete Main
Default : Yes
Forced : Yes

Menu
00:00:00.000 : en:Chapter 1
00:02:57.625 : en:Chapter 2
00:12:56.041 : en:Chapter 3
00:22:19.791 : en:Chapter 4
00:27:54.541 : en:Chapter 5
00:34:27.791 : en:Chapter 6
00:39:15.624 : en:Chapter 7
00:43:57.707 : en:Chapter 8
00:50:24.998 : en:Chapter 9
00:56:01.039 : en:Chapter 10
01:01:37.455 : en:Chapter 11
01:06:04.996 : en:Chapter 12
01:15:25.621 : en:Chapter 13
01:22:15.746 : en:Chapter 14
01:29:59.371 : en:Chapter 15
01:36:47.787 : en:Chapter 16

pb.wtf



Скачать Вальгалла: Рагнарёк через торрент https://img10.lostpic.net/2020/02/19/3de39591f9b9d6e4d41848028cefa8e4.jpg Скачать фильм Вальгалла: Рагнарёк через торрент бесплантно в хорошем качестве Описание: Близится Рагнарек, и великие боги Асгарда собирают последние силы перед битвой. Двое смертных из Мидгарда вместе с Локи и Тором ... 9.5 10 33
Торрент: Зарегистрирован [2020-02-19 21:09] · скачан: 991 раз
Статус: √ проверено
Размер: 3.68 GB
Как cкачать? Как скачать Вальгалла: Рагнарёк через торрент | qTorrent

% Раздел Тема Автор DL S | L
Фильмы 2019-2020 [DVDrip, WEB-DLRip, HDrip] (DUB, MVO) [ 2.38 GB ] Вальгалла: Рагнарёк / Valhalla [2019 BDRip-AVC] - ExKinoRay Mr. Grab Скачать
3 | 0
Фильмы 2019-2020 [DVDrip, WEB-DLRip, HDrip] (DUB, MVO) [ 743 MB ] Вальгалла: Рагнарёк / Valhalla [2019 HDRip] bober100 Скачать
1 | 0
Фильмы 2019-2020 [DVDrip, WEB-DLRip, HDrip] (DUB, MVO) [ 2.12 GB ] Вальгалла: Рагнарёк / Valhalla [2019 BDRip-AVC] bober100 Скачать
1 | 0
Фильмы 2019-2020 [DVDrip, WEB-DLRip, HDrip] (DUB, MVO) [ 1.41 GB ] Вальгалла: Рагнарёк / Valhalla [2019 BDRip] bober100 Скачать
2 | 0

28-11-2019 20:33  

Отключить всю рекламу на сайте

20-02-2020 19:25 Вальгалла: Рагнарёк Скачать торрент  

Муть такая, еле досмотрел pb.wtf



21-02-2020 00:24 Вальгалла: Рагнарёк Скачать торрент  

Villain писал(а):

Муть такая, еле досмотрел

Был удивлён когда боги сидят рыгают на друг друга))

Великаны, хах, так это ведь орки))

Было бы интересней, если эта девочка сражалась бы с бабкой этой, а так странно, запрыгнула к ней и выпрыгнула))

Короче муть)pb.wtf



22-02-2020 16:05 Вальгалла: Рагнарёк Скачать торрент  

НО,ты прям коментатор от бога))Последнее своё предложение хоть понял?Вот и я не понял))Удачи в коментах))трололо))pb.wtf



22-02-2020 17:26 Вальгалла: Рагнарёк Скачать торрент  

Да, фильм не очень. Детям как сказка неприхотливая- может и зайдет...pb.wtf



    Дорогой пользователь! Огромная просьба, поблагодарите релизера, оцените раздачу и оставьте свои комментарий, если Вы скачали Вальгалла: Рагнарёк через торрент бесплатно! Внесите свою лепту в развитие PiratBit!
    Комментировать посты могут только пользователи прошедшие не сложную регистрацию
    Показать сообщения:    

    Вальгалла: Рагнарёк через торрент
    Скачать бесплатно Вальгалла: Рагнарёк
    Вальгалла: Рагнарёк скачать торрент
    Вальгалла: Рагнарёк смотреть онлайн
    Cкачать фильм Вальгалла: Рагнарёк бесплатно
    Вальгалла: Рагнарёк скачать торрент в хорошем качестве
    Вальгалла: Рагнарёк смотреть онлайн бесплатно в хорошем качестве


    Вы не можете начинать темы
    Вы не можете отвечать на сообщения
    Вы не можете редактировать свои сообщения
    Вы не можете удалять свои сообщения
    Вы не можете голосовать в опросах
    Вы не можете прикреплять файлы к сообщениям
    Вы можете скачивать файлы