Ссылка на приватное зеркало нашего сайта всего за 1$. Внимание количество ограничено!!!

2 сезон

iTunes

1 сезон

1

2 сезон

2 сезон

iTunes

1 сезон

RePack

30

Новинка

ВАЖНО

ИГРА 18+

pack

RePack

MK11
pack

Забери бонус

RePack

jed

!!Акция!!

Alien_Rage

RePack

fifa19

RePack

Assassins Creed: Odyssey

RePack

NEED FOR SPEED™ PAYBACK

4 сезон

9 сезон

Бесстыжие 9 сезон

Все сериалы

все сериалы на PB.wtf

RePack

FAR CRY 5
  

Последнее, чего он хотел / The Last Thing He Wanted (Ди Риис / Dee Rees) [2020, триллер, драма, криминал, детектив, WEB-DL 1080p] [Dub] (Пифагор) pb.wtf

Последнее, чего он хотел через торрент pb.wtf

Размер: 4.37 GB | Добавлен: 9 мес. назад | Торрент скачан:201 раз
Скачать  

21-02-2020 12:37 Последнее, чего он хотел Скачать торрент  

Последнее, чего он хотел / The Last Thing He Wanted
Год выпуска: 2020
Производство: США
Жанр: триллер, драма, криминал, детектив
Продолжительность: 01:55:00

Перевод: Профессиональный (дублированный) | Пифагор

Субтитры: Русские (Forced, Full), английские (Forced, Full, SDH), немецкие, испанские, французкие, итальянские, португальские
Оригинальная аудиодорожка: английская

Режиссер: Ди Риис / Dee Rees

В ролях: Бен Аффлек, Энн Хэтэуэй, Уиллем Дефо, Рози Перес, Тоби Джонс, Эди Гатеги, Мэл Родригез, Лаура Ниеми, Карлос Леаль

Описание: Журналистка газеты Washington Post Елена Макмэхон, выполняя последнюю просьбу матери, отказывается освещать президентские выборы 1984 года и начинает ухаживать за пожилым отцом, который в своё время занимался организацией поставок оружия в Иран и финансированием повстанцев в Центральной Америке.

rating

Качество: WEB-DL 1080p
Контейнер: MKV
Видео: AVC, 1920x1080 (16:9), 24 fps, ~4220 kbps
Аудио №1: E-AC3, 48 kHz, 6 ch, 640 kbps
Аудио №2: E-AC3, 48 kHz, 6 ch, 640 kbps
Формат субтитров: softsub (SRT)
Работа со звуком Zgurvas@EniaHD

Код:

General
Unique ID                      : 328298027719412891394381955835804638604 (0xF6FBE675439ED09169CCD25403CDDD8C)
Complete name                  : The.Last.Thing.He.Wanted.2020.1080p.NF.WEB-DL.DDP5.1.x264-EniaHD.mkv
Format                         : Matroska
Format version                 : Version 4
File size                      : 4.37 GiB
Duration                       : 1 h 55 min
Overall bit rate mode          : Variable
Overall bit rate               : 5 407 kb/s
Movie name                     : The Last Thing He Wanted (2020) - EniaHD
Encoded date                   : UTC 2020-02-21 08:23:10
Writing application            : mkvmerge v43.0.0 ('The Quartermaster') 64-bit
Writing library                : libebml v1.3.10 + libmatroska v1.5.2

Video
ID                             : 1
Format                         : AVC
Format/Info                    : Advanced Video Codec
Format profile                 : Main@L4
Format settings                : CABAC / 3 Ref Frames
Format settings, CABAC         : Yes
Format settings, Reference fra : 3 frames
Codec ID                       : V_MPEG4/ISO/AVC
Duration                       : 1 h 55 min
Bit rate mode                  : Variable
Bit rate                       : 4 220 kb/s
Maximum bit rate               : 6 330 kb/s
Width                          : 1 920 pixels
Height                         : 1 080 pixels
Display aspect ratio           : 16:9
Frame rate mode                : Constant
Frame rate                     : 24.000 FPS
Color space                    : YUV
Chroma subsampling             : 4:2:0
Bit depth                      : 8 bits
Scan type                      : Progressive
Bits/(Pixel*Frame)             : 0.085
Stream size                    : 3.33 GiB (76%)
Writing library                : x264 core 148 r2715 7e75228
Encoding settings              : cabac=1 / ref=3 / deblock=1:0:0 / analyse=0x1:0x111 / me=umh / subme=10 / psy=1 / psy_rd=1.00:0.00 / mixed_ref=1 / me_range=24 / chroma_me=1 / trellis=2 / 8x8dct=0 / cqm=0 / deadzone=21,11 / fast_pskip=1 / chroma_qp_offset=-2 / threads=8 / lookahead_threads=1 / sliced_threads=0 / nr=0 / decimate=1 / interlaced=0 / bluray_compat=0 / stitchable=1 / constrained_intra=0 / bframes=2 / b_pyramid=0 / b_adapt=2 / b_bias=0 / direct=3 / weightb=1 / open_gop=0 / weightp=2 / keyint=250 / keyint_min=24 / scenecut=0 / intra_refresh=0 / rc_lookahead=48 / rc=2pass / mbtree=1 / bitrate=4220 / ratetol=1.0 / qcomp=0.50 / qpmin=6 / qpmax=51 / qpstep=4 / cplxblur=20.0 / qblur=0.5 / vbv_maxrate=6330 / vbv_bufsize=8440 / nal_hrd=vbr / filler=0 / ip_ratio=1.40 / aq=1:1.00
Default                        : Yes
Forced                         : No

Audio #1
ID                             : 2
Format                         : E-AC-3
Format/Info                    : Enhanced AC-3
Commercial name                : Dolby Digital Plus
Codec ID                       : A_EAC3
Duration                       : 1 h 55 min
Bit rate mode                  : Constant
Bit rate                       : 640 kb/s
Channel(s)                     : 6 channels
Channel layout                 : L R C LFE Ls Rs
Sampling rate                  : 48.0 kHz
Frame rate                     : 31.250 FPS (1536 SPF)
Compression mode               : Lossy
Stream size                    : 530 MiB (12%)
Language                       : Russian
Service kind                   : Complete Main
Default                        : Yes
Forced                         : No

Audio #2
ID                             : 3
Format                         : E-AC-3
Format/Info                    : Enhanced AC-3
Commercial name                : Dolby Digital Plus
Codec ID                       : A_EAC3
Duration                       : 1 h 55 min
Bit rate mode                  : Constant
Bit rate                       : 640 kb/s
Channel(s)                     : 6 channels
Channel layout                 : L R C LFE Ls Rs
Sampling rate                  : 48.0 kHz
Frame rate                     : 31.250 FPS (1536 SPF)
Compression mode               : Lossy
Stream size                    : 530 MiB (12%)
Language                       : English
Service kind                   : Complete Main
Default                        : No
Forced                         : No

Text #1
ID                             : 4
Format                         : UTF-8
Codec ID                       : S_TEXT/UTF8
Codec ID/Info                  : UTF-8 Plain Text
Duration                       : 1 h 46 min
Bit rate                       : 5 b/s
Count of elements              : 78
Stream size                    : 4.21 KiB (0%)
Title                          : Forced
Language                       : Russian
Default                        : Yes
Forced                         : No

Text #2
ID                             : 5
Format                         : UTF-8
Codec ID                       : S_TEXT/UTF8
Codec ID/Info                  : UTF-8 Plain Text
Duration                       : 1 h 54 min
Bit rate                       : 102 b/s
Count of elements              : 1635
Stream size                    : 86.3 KiB (0%)
Language                       : Russian
Default                        : No
Forced                         : No

Text #3
ID                             : 6
Format                         : UTF-8
Codec ID                       : S_TEXT/UTF8
Codec ID/Info                  : UTF-8 Plain Text
Duration                       : 1 min 16 s
Bit rate                       : 62 b/s
Count of elements              : 18
Stream size                    : 595 Bytes (0%)
Title                          : Forced
Language                       : English
Default                        : No
Forced                         : No

Text #4
ID                             : 7
Format                         : UTF-8
Codec ID                       : S_TEXT/UTF8
Codec ID/Info                  : UTF-8 Plain Text
Duration                       : 1 h 45 min
Bit rate                       : 76 b/s
Count of elements              : 1686
Stream size                    : 59.1 KiB (0%)
Language                       : English
Default                        : No
Forced                         : No

Text #5
ID                             : 8
Format                         : UTF-8
Codec ID                       : S_TEXT/UTF8
Codec ID/Info                  : UTF-8 Plain Text
Duration                       : 1 h 49 min
Bit rate                       : 82 b/s
Count of elements              : 1923
Stream size                    : 66.0 KiB (0%)
Title                          : SDH
Language                       : English
Default                        : No
Forced                         : No

Text #6
ID                             : 9
Format                         : UTF-8
Codec ID                       : S_TEXT/UTF8
Codec ID/Info                  : UTF-8 Plain Text
Duration                       : 1 h 54 min
Bit rate                       : 63 b/s
Count of elements              : 1509
Stream size                    : 53.5 KiB (0%)
Language                       : German
Default                        : No
Forced                         : No

Text #7
ID                             : 10
Format                         : UTF-8
Codec ID                       : S_TEXT/UTF8
Codec ID/Info                  : UTF-8 Plain Text
Duration                       : 1 h 47 min
Bit rate                       : 62 b/s
Count of elements              : 1598
Stream size                    : 49.5 KiB (0%)
Title                          : European
Language                       : Spanish
Default                        : No
Forced                         : No

Text #8
ID                             : 11
Format                         : UTF-8
Codec ID                       : S_TEXT/UTF8
Codec ID/Info                  : UTF-8 Plain Text
Duration                       : 1 h 47 min
Bit rate                       : 65 b/s
Count of elements              : 1642
Stream size                    : 51.6 KiB (0%)
Language                       : French
Default                        : No
Forced                         : No

Text #9
ID                             : 12
Format                         : UTF-8
Codec ID                       : S_TEXT/UTF8
Codec ID/Info                  : UTF-8 Plain Text
Duration                       : 1 h 47 min
Bit rate                       : 61 b/s
Count of elements              : 1581
Stream size                    : 48.8 KiB (0%)
Language                       : Italian
Default                        : No
Forced                         : No

Text #10
ID                             : 13
Format                         : UTF-8
Codec ID                       : S_TEXT/UTF8
Codec ID/Info                  : UTF-8 Plain Text
Duration                       : 1 h 47 min
Bit rate                       : 63 b/s
Count of elements              : 1407
Stream size                    : 49.8 KiB (0%)
Language                       : Portuguese
Default                        : No
Forced                         : No

скриншот  скриншот  скриншот  
pb.wtf



Скачать Последнее, чего он хотел через торрент https://funkyimg.com/i/32sm4.jpg Скачать фильм Последнее, чего он хотел через торрент бесплантно в хорошем качестве Описание: Журналистка газеты Washington Post Елена Макмэхон, выполняя последнюю просьбу матери, отказывается освещать президентские выборы ... 10 10 12
Info! Золотая раздача, скачанное не засчитывается.
Торрент: Зарегистрирован [2020-02-21 12:37] · скачан: 201 раз
Статус: √ проверено
Размер: 4.37 GB
Как cкачать? Как скачать Последнее, чего он хотел через торрент | qTorrent

% Раздел Тема Автор DL S | L
Фильмы 2019-2020 [DVDrip, WEB-DLRip, HDrip] (DUB, MVO) [ 1.46 GB ] Последнее чего он хотел / The Last Thing He Wanted [2020 WEB-DLRip] killermax2013 Скачать
2 | 0

28-11-2019 20:33  

Отключить всю рекламу на сайте

04-03-2020 00:12 Последнее, чего он хотел Скачать торрент  

Описание не соответствует содержанию фильма. Ирана там и близко нет. Основные события происходят на "заднем дворе" США. Поставками оружия и финансированием занималось ЦРУ через частных торговцев в т.ч. и отца героини фильма. Поддержка "повстанцев", которые массово убивали женщин и детей своих стран, оправдывается борьбой с коммунизмом, как преступной идеологией.pb.wtf



    Дорогой пользователь! Огромная просьба, поблагодарите релизера, оцените раздачу и оставьте свои комментарий, если Вы скачали Последнее, чего он хотел через торрент бесплатно! Внесите свою лепту в развитие PiratBit!
    Комментировать посты могут только пользователи прошедшие не сложную регистрацию
    Показать сообщения:    

    Последнее, чего он хотел через торрент
    Скачать бесплатно Последнее, чего он хотел
    Последнее, чего он хотел скачать торрент
    Последнее, чего он хотел смотреть онлайн
    Cкачать фильм Последнее, чего он хотел бесплатно
    Последнее, чего он хотел скачать торрент в хорошем качестве
    Последнее, чего он хотел смотреть онлайн бесплатно в хорошем качестве


    Вы не можете начинать темы
    Вы не можете отвечать на сообщения
    Вы не можете редактировать свои сообщения
    Вы не можете удалять свои сообщения
    Вы не можете голосовать в опросах
    Вы не можете прикреплять файлы к сообщениям
    Вы можете скачивать файлы