Ссылка на приватное зеркало нашего сайта всего за 1$. Внимание количество ограничено!!!

2 сезон

iTunes

1 сезон

1

2 сезон

2 сезон

iTunes

1 сезон

RePack

30

Новинка

ВАЖНО

ИГРА 18+

pack

RePack

MK11
pack

Забери бонус

RePack

jed

!!Акция!!

Alien_Rage

RePack

fifa19

RePack

Assassins Creed: Odyssey

RePack

NEED FOR SPEED™ PAYBACK

4 сезон

9 сезон

Бесстыжие 9 сезон

Все сериалы

все сериалы на PB.wtf

RePack

FAR CRY 5
  

Темные воды / Dark Waters (Тодд Хейнс) [2019, Триллер, драма, биография, история, BD Remux 1080p] MVO [HDrezka Studio] pb.wtf

Темные воды через торрент pb.wtf

Размер: 35.04 GB | Добавлен: 9 мес. назад | Торрент скачан:35 раз
Скачать  

21-02-2020 17:38 Темные воды Скачать торрент  

Темные воды | Dark Waters Год выпуска: 2019
Страна: США
Студия: Killer Content, Participant Media, Willi Hill
Жанр: Триллер, драма, биография, история
Продолжительность: 02:07:03
Перевод: Профессиональный (многоголосый) | HDRezka Studio
Субтитры: Русские (Forced), Английские (SDH)

Режиссер: Тодд Хейнс

rating

В ролях: Марк Руффало, Энн Хэтэуэй, Тим Роббинс, Уильям Джексон Харпер, Билл Пуллман, Мэр Уиннингхэм, Виктор Гарбер, Луиза Краузе, Билл Кэмп, Скарлет Хикс, Кевин Краули

Описание: Адвокат Роберт Билотт, работавший корпоративным юристом химического холдинга DuPont, выступает с обвинением в суде против своей бывшей компании, которая десятилетиями цинично травила людей, загрязняя химикатами питьевую воду. Он ведет это дело 19 лет. До сего дня.

Качество: BD Remux 1080p
Формат: MKV

Видео: MPEG-4 AVC, 1920x1080, 35.9 Mбит/с, 23.976 кадр/с
Аудио#1: Русский: 48 kHz, AC3 Dolby Digital, 5.1 ch, 448 kbps / Многоголосый закадровый, HDrezka Studio
Аудио#2: Английский: 48 kHz/24-bit, DTS-HD MA 5.1 , 3117 kbps
скриншот  скриншот  скриншот  скриншот  скриншот  

General
Unique ID : 161208209687623673116786542473257290913 (0x7947926392617AE9ADDB11F812320CA1)
Complete name : C:KINODark.Waters.2019.BDRemux.1080p.by Silverok.mkv
Format : Matroska
Format version : Version 4
File size : 35.0 GiB
Duration : 2 h 7 min
Overall bit rate mode : Variable
Overall bit rate : 39.5 Mb/s
Movie name : Dark.Waters.2019.BDRemux.1080p.by Silverok
Encoded date : UTC 2020-02-21 16:39:59
Writing application : mkvmerge v43.0.0 ('The Quartermaster') 64-bit
Writing library : libebml v1.3.10 + libmatroska v1.5.2
Cover : Yes
Attachments : cover.png

Video
ID : 1
Format : AVC
Format/Info : Advanced Video Codec
Format profile : High@L4.1
Format settings : CABAC / 4 Ref Frames
Format settings, CABAC : Yes
Format settings, Reference frames : 4 frames
Format settings, GOP : M=3, N=12
Codec ID : V_MPEG4/ISO/AVC
Duration : 2 h 7 min
Bit rate mode : Variable
Bit rate : 35.9 Mb/s
Maximum bit rate : 40.0 Mb/s
Width : 1 920 pixels
Height : 1 080 pixels
Display aspect ratio : 16:9
Frame rate mode : Constant
Frame rate : 23.976 (24000/1001) FPS
Color space : YUV
Chroma subsampling : 4:2:0
Bit depth : 8 bits
Scan type : Progressive
Bits/(Pixel*Frame) : 0.722
Stream size : 31.9 GiB (91%)
Title : BDRemux.1080p.by Silverok
Default : Yes
Forced : No

Audio #1
ID : 2
Format : AC-3
Format/Info : Audio Coding 3
Commercial name : Dolby Digital
Codec ID : A_AC3
Duration : 2 h 7 min
Bit rate mode : Constant
Bit rate : 448 kb/s
Channel(s) : 6 channels
Channel layout : L R C LFE Ls Rs
Sampling rate : 48.0 kHz
Frame rate : 31.250 FPS (1536 SPF)
Compression mode : Lossy
Stream size : 407 MiB (1%)
Title : Многоголосый, закадровый, HDrezka Studio
Language : Russian
Service kind : Complete Main
Default : Yes
Forced : No

Audio #2
ID : 3
Format : DTS XLL
Format/Info : Digital Theater Systems
Commercial name : DTS-HD Master Audio
Codec ID : A_DTS
Duration : 2 h 7 min
Bit rate mode : Variable
Bit rate : 3 117 kb/s
Channel(s) : 6 channels
Channel layout : C L R Ls Rs LFE
Sampling rate : 48.0 kHz
Frame rate : 93.750 FPS (512 SPF)
Bit depth : 24 bits
Compression mode : Lossless
Stream size : 2.77 GiB (8%)
Language : English
Default : No
Forced : No

Text #1
ID : 4
Format : UTF-8
Codec ID : S_TEXT/UTF8
Codec ID/Info : UTF-8 Plain Text
Duration : 2 h 0 min
Bit rate : 3 b/s
Count of elements : 39
Stream size : 2.88 KiB (0%)
Title : Forced
Language : Russian
Default : Yes
Forced : No

Text #2
ID : 5
Format : UTF-8
Codec ID : S_TEXT/UTF8
Codec ID/Info : UTF-8 Plain Text
Duration : 1 h 59 min
Bit rate : 67 b/s
Count of elements : 1681
Stream size : 58.9 KiB (0%)
Title : Full
Language : English
Default : No
Forced : No

Text #3
ID : 6
Format : UTF-8
Codec ID : S_TEXT/UTF8
Codec ID/Info : UTF-8 Plain Text
Duration : 2 h 1 min
Bit rate : 70 b/s
Count of elements : 1781
Stream size : 62.7 KiB (0%)
Title : SDH
Language : English
Default : No
Forced : No

Menu
00:00:00.000 : en:Глава 01
00:10:08.191 : en:Глава 02
00:18:18.431 : en:Глава 03
00:28:20.449 : en:Глава 04
00:36:48.957 : en:Глава 05
00:44:45.892 : en:Глава 06
00:50:17.056 : en:Глава 07
01:04:17.395 : en:Глава 08
01:08:46.080 : en:Глава 09
01:17:23.639 : en:Глава 10
01:23:51.151 : en:Глава 11
01:25:32.002 : en:Глава 12
01:31:40.995 : en:Глава 13
01:36:14.978 : en:Глава 14
01:38:55.763 : en:Глава 15
01:42:26.724 : en:Глава 16
01:45:11.180 : en:Глава 17
01:50:32.084 : en:Глава 18
02:00:16.584 : en:Глава 19
02:02:02.565 : en:Глава 20

pb.wtf



Скачать Темные воды через торрент https://a.radikal.ru/a05/2002/f4/12fc1cab643c.png Скачать фильм Темные воды через торрент бесплантно в хорошем качестве Описание: Адвокат Роберт Билотт, работавший корпоративным юристом химического холдинга DuPont, выступает с обвинением в суде против своей ... 10 10 5
Торрент: Зарегистрирован [2020-02-21 17:38] · скачан: 35 раз
Статус: √ проверено
Размер: 35.04 GB
Как cкачать? Как скачать Темные воды через торрент | qTorrent

% Раздел Тема Автор DL S | L
Фильмы (Blu-ray, BD-Remux, HDDVD) [ 34.98 GB ] Темные воды / Dark Waters [2019 биография история BD Remux1080p] DUB bober100 Скачать
2 | 0
Фильмы [HD 720p, 1080p] (Хороший звук DUB, MVO) [ 18.06 GB ] Темные воды / Dark Waters [2019 биография история BDRip 1080p] DUB bober100 Скачать
3 | 0
Фильмы [HD 720p, 1080p] (Хороший звук DUB, MVO) [ 8.79 GB ] Темные воды / Dark Waters [2019 биография история BDRip 720p] DUB bober100 Скачать
5 | 0
Фильмы 2019-2020 [DVDrip, WEB-DLRip, HDrip] (DUB, MVO) [ 2.13 GB ] Темные воды / Dark Waters [2019 биография история BDRip] DUB bober100 Скачать
3 | 0
Фильмы 2019-2020 [DVDrip, WEB-DLRip, HDrip] (DUB, MVO) [ 1.46 GB ] Темные воды / Dark Waters [2019 биография история BDRip] DUB bober100 Скачать
86 | 3
Фильмы 2019-2020 [DVDrip, WEB-DLRip, HDrip] (DUB, MVO) [ 2.84 GB ] Темные воды / Dark Waters [2019 биография история BDRip-AVC] MVO [HDrezka Studio] - ExKinoRay Enigma2010 Скачать
33 | 0
Фильмы 2019-2020 [DVDrip, WEB-DLRip, HDrip] (DUB, MVO) [ 1.46 GB ] Темные воды / Dark Waters [2019 биография история BDRip] MVO [HDrezka Studio] bober100 Скачать
3 | 0

28-11-2019 20:33  

Отключить всю рекламу на сайте

    Дорогой пользователь! Огромная просьба, поблагодарите релизера, оцените раздачу и оставьте свои комментарий, если Вы скачали Темные воды через торрент бесплатно! Внесите свою лепту в развитие PiratBit!
    Комментировать посты могут только пользователи прошедшие не сложную регистрацию
    Показать сообщения:    

    Темные воды через торрент
    Скачать бесплатно Темные воды
    Темные воды скачать торрент
    Темные воды смотреть онлайн
    Cкачать фильм Темные воды бесплатно
    Темные воды скачать торрент в хорошем качестве
    Темные воды смотреть онлайн бесплатно в хорошем качестве


    Вы не можете начинать темы
    Вы не можете отвечать на сообщения
    Вы не можете редактировать свои сообщения
    Вы не можете удалять свои сообщения
    Вы не можете голосовать в опросах
    Вы не можете прикреплять файлы к сообщениям
    Вы можете скачивать файлы