2 сезон

iTunes

1 сезон

1

iTunes

iTunes

iTunes

1 сезон

RePack

30

ИГРА 18+

pack

ВАЖНО

!!Акция!!

Alien_RageХит недели

RePack

MK11
pack

Забери бонус

RePack

jed

!!Акция!!

Alien_Rage

RePack

fifa19

RePack

Assassins Creed: Odyssey

RePack

NEED FOR SPEED™ PAYBACK

4 сезон

9 сезон

Бесстыжие 9 сезон

Все сериалы

все сериалы на PB.wtf

RePack

FAR CRY 5
  

Полицейский роман / Серии: 1-2 из 2 (Наталья Хлопецкая) [2020, Криминал, мелодрама, WEB-DLRip] pb.wtf

Полицейский роман через торрент pb.wtf

Размер: 1.15 GB | Добавлен: 8 мес. назад | Торрент скачан:38 раз
Скачать  

22-02-2020 07:49 Полицейский роман Скачать торрент  

Полицейский роман
Год выпуска: 2020
Страна: Россия
Жанр: Криминал, мелодрама
Продолжительность: ~ 00:46:00
Субтитры: отсутствуют

Режиссер: Наталья Хлопецкая

В ролях: Алексей Матошин, Татьяна Тимакова, Ирина Баринова, Равиль Насретдинов, Сергей Петров (II), Александр Печенин, Надежда Игошина, Александр Кольцов, Владимир Демидов

Описание: Оперативник убойного отдела Сергей Бачурин – суперпрофессионал. Упрямый, жесткий, часто идущий против системы. А в личной жизни – циник и грубиян с множеством служебных романов. Никто и не догадывается, что он до сих пор любит жену, давно ушедшую от него к другому. Расследуя убийство известной журналистки, Бачурин неожиданно начинает подозревать, что преступление имеет связь с его собственным прошлым.

Качество: WEB-DLRip
Формат: AVI

Видео: 720x400 (1.80:1), 25 fps, XviD ~1600 kbps avg, 0.222 bit/pixel
Аудио: 48.0 kHz, AC3 Dolby Digital, 2/0 (L,R) ch, ~ 192 kbps
скриншот  скриншот  скриншот  скриншот  скриншот  

General
Complete name : D:\Полицейский роман .2019.WEB-DLRip.Files-x\01. Полицейский роман .2019.WEB-DLRip.Files-x.avi
Format : AVI
Format/Info : Audio Video Interleave
File size : 588 MiB
Duration : 45 min 39 s
Overall bit rate : 1 802 kb/s
Writing application : VirtualDubMod 1.5.10.3 | www.virtualdub-fr.org || (build 2550/release)
Writing library : VirtualDubMod build 2550/release

Video
ID : 0
Format : MPEG-4 Visual
Format profile : Advanced Simple@L5
Format settings : BVOP1 / Custom Matrix
Format settings, BVOP : 1
Format settings, QPel : No
Format settings, GMC : No warppoints
Format settings, Matrix : Custom
Codec ID : XVID
Codec ID/Hint : XviD
Duration : 45 min 39 s
Bit rate : 1 600 kb/s
Width : 720 pixels
Height : 400 pixels
Display aspect ratio : 16:9
Frame rate : 25.000 FPS
Color space : YUV
Chroma subsampling : 4:2:0
Bit depth : 8 bits
Scan type : Progressive
Compression mode : Lossy
Bits/(Pixel*Frame) : 0.222
Stream size : 523 MiB (89%)
Writing library : XviD 73

Audio
ID : 1
Format : AC-3
Format/Info : Audio Coding 3
Codec ID : 2000
Duration : 45 min 39 s
Bit rate mode : Constant
Bit rate : 192 kb/s
Channel(s) : 2 channels
Channel positions : Front: L R
Sampling rate : 48.0 kHz
Frame rate : 31.250 FPS (1536 SPF)
Bit depth : 16 bits
Compression mode : Lossy
Stream size : 62.7 MiB (11%)
Alignment : Split accross interleaves
Interleave, duration : 40 ms (1.00 video frame)
Interleave, preload duratio : 500 ms
Service kind : Complete Main

pb.wtf



Скачать Полицейский роман через торрент https://i111.fastpic.ru/big/2020/0221/21/5075b3b64aa8f6cb219305510d014a21.jpg Скачать фильм Полицейский роман через торрент бесплантно в хорошем качестве Описание: Оперативник убойного отдела Сергей Бачурин – суперпрофессионал. Упрямый, жесткий, часто идущий против системы. А в личной жизни – ... 10 10 4
Торрент: Зарегистрирован [2020-02-22 07:49] · скачан: 38 раз
Статус: √ проверено
Размер: 1.15 GB
Как cкачать? Как скачать Полицейский роман через торрент | qTorrent

% Раздел Тема Автор DL S | L
Наши сериалы [ 1.14 GB ] Полицейский роман / Серии: 1-2 из 2 [2020 WEB-DLRip-AVC] bober100 Скачать
1 | 0
Наши сериалы [ 1.06 GB ] Полицейский роман / Серии: 1-2 из 2 [2020 SATRip-AVC] aleksan55 Скачать
1 | 0

28-11-2019 20:33  

Отключить всю рекламу на сайте

    Дорогой пользователь! Огромная просьба, поблагодарите релизера, оцените раздачу и оставьте свои комментарий, если Вы скачали Полицейский роман через торрент бесплатно! Внесите свою лепту в развитие PiratBit!
    Комментировать посты могут только пользователи прошедшие не сложную регистрацию
    Показать сообщения:    

    Полицейский роман через торрент
    Скачать бесплатно Полицейский роман
    Полицейский роман скачать торрент
    Полицейский роман смотреть онлайн
    Cкачать фильм Полицейский роман бесплатно
    Полицейский роман скачать торрент в хорошем качестве
    Полицейский роман смотреть онлайн бесплатно в хорошем качестве


    Вы не можете начинать темы
    Вы не можете отвечать на сообщения
    Вы не можете редактировать свои сообщения
    Вы не можете удалять свои сообщения
    Вы не можете голосовать в опросах
    Вы не можете прикреплять файлы к сообщениям
    Вы можете скачивать файлы