Всегда рабочее зеркало без VPN и Proxy просто перед .vidak.icu напиши любое слово или цифру, Пример http://emyw.vidak.icu

MVO

Лицензия

1 сезон

1

1 сезон

iTunes

1 сезон

13

1 сезон

Deluxe

pack

Рекомендуем

Пиратка

30

ВАЖНО

RePack

MK11

RePack

jed

RePack

fifa19

RePack

RDR2

RePack

NEED FOR SPEED™ PAYBACK

Кинопоиск HD

6 сезон

 Острые козырьки 6 сезон

Все сериалы

все сериалы на PB.wtf

RePack

FAR CRY 5
  
Magnet ссылка

Маршруты любви. Все на природу / Серии: 1-2 из 2 (Борис Рабей) [2020, Мелодрама, HDTV 1080i] pb.wtf

Маршруты любви. Все на природу через торрент pb.wtf

Размер: 9.69 GB | Добавлен: 2 года 4 мес. назад | Торрент скачан:36 раз
Смотреть онлайн Маршруты любви. Все на природу | Скачать    Ребята, помогите собрать деньги на оплату серверов!!!

22-02-2020 22:42 Маршруты любви. Все на природу Скачать торрент  

Маршруты любви. Все на природу
Год выпуска: 2020
Страна: Россия
Жанр: Мелодрама
Продолжительность: ~ 01:30:00
Субтитры: отсутствуют

Режиссер: Борис Рабей



В ролях: Яна Крайнова, Виолетта Давыдовская, Дарья Егорова, Дмитрий Бурукин, Константин Соловьёв, Алексей Коряков, Валерия Яковлева

Описание: Нелли уже тридцать лет, она не замужем, у неё скучная работа и никаких перспектив на горизонте. Чего она только не перепробовала, чтобы наладить личную жизнь! Но счастье не спешит к ней. Когда её бросает очередной парень, Нелли от отчаяния едва не сводит счёты со своей непутёвой жизнью. Подруги Аня и Жанна пытаются ей помочь, но вскоре все трое понимают, что нуждаются в кардинальных переменах. И начать девушки решают с перезагрузки — они решают пройти тренинг на выживание в диких условиях вдали от цивилизации. Две недели по одному из самых экстремальных маршрутов — готовы ли к таким испытаниям изнеженные москвички?..

Качество: HDTV 1080i
Формат: TS

Видео: MPEG-4 AVC, ~ 7100 Кбит/с, 1920x1080, 25 кадр/с
Аудио: Русский (MP2, 2 ch, 192 Кбит/с)
скриншот  скриншот  скриншот  скриншот  

Общее
Идентификатор : 1 (0x1)
Полное имя : C:\Marshruty.lyubvi.2019.HDTV.1080i\Marshruty.lyubvi.01.2019.HDTV.1080i.ts
Формат : MPEG-TS
Размер файла : 4,85 Гбайт
Продолжительность : 1 ч. 30 м.
Режим общего битрейта : Переменный
Общий поток : 7655 Кбит/сек

Видео
Идентификатор : 2911 (0xB5F)
Идентификатор меню : 1379 (0x563)
Формат : AVC
Формат/Информация : Advanced Video Codec
Профиль формата : High@L4
Настройки формата : CABAC / 4 Ref Frames
Параметр CABAC формата : Да
Параметр RefFrames формата : 4 кадра
Идентификатор кодека : 27
Продолжительность : 1 ч. 30 м.
Битрейт : 7083 Кбит/сек
Ширина : 1920 пикселей
Высота : 1080 пикселей
Соотношение сторон : 16:9
Частота кадров : 25,000 кадров/сек
Цветовое пространство : YUV
Субдискретизация насыщенности : 4:2:0
Битовая глубина : 8 бит
Тип развёртки : MBAFF
Метод сохранения типа развёртки : Чередующиеся поля
Порядок развёртки : Верхнее поле первое
Бит/(Пиксели*Кадры) : 0.137
Размер потока : 4,49 Гбайт (93%)

Аудио
Идентификатор : 2912 (0xB60)
Идентификатор меню : 1379 (0x563)
Формат : MPEG Audio
Версия формата : Version 1
Профиль формата : Layer 2
Идентификатор кодека : 3
Продолжительность : 1 ч. 30 м.
Вид битрейта : Постоянный
Битрейт : 192 Кбит/сек
Каналы : 2 канала
Частота : 48,0 КГц
Частота кадров : 41,667 кадра/сек (1152 SPF)
Метод сжатия : С потерями
Задержка видео : -200 мс.
Размер потока : 125 Мбайт (3%)
Язык : Russian

pb.wtf



Скачать Маршруты любви. Все на природу через торрент https://i111.fastpic.ru/big/2020/0223/b0/e9f0f0e6489ee7fddc01b4d4ade6e2b0.jpg Скачать, смотреть онлайн Маршруты любви. Все на природу бесплантно в хорошем качестве Описание: Нелли уже тридцать лет, она не замужем, у неё скучная работа и никаких перспектив на горизонте. Чего она только не перепробовала, ... 10 10 2
Торрент: Зарегистрирован [2020-02-23 01:33] · скачан: 36 раз
Статус: √ проверено
Размер: 9.69 GB
Как cкачать? Как скачать Маршруты любви. Все на природу через торрент | UTorrent

% Раздел Тема Автор DL S | L
Наши сериалы [ 4.67 GB ] Маршруты любви. Все на природу / Серии: 1-2 из 2 [2020 Мело HDTVRip 720p] bober100 Скачать
1 | 0
Наши сериалы [ 2.28 GB ] Маршруты любви. Все на природу / Серии: 1-2 из 2 [2020 Мело WEB-DLRip-AVC] bober100 Скачать
1 | 0
Наши сериалы [ 2.18 GB ] Маршруты любви. Все на природу / Серии: 1-2 из 2 [2020 Мело WEB-DLRip] bober100 Скачать
1 | 0

28-11-2019 20:33  

Отключить всю рекламу на сайте

    Дорогой пользователь! Огромная просьба, поблагодарите релизера, оцените раздачу и оставьте свои комментарий, если Вы скачали Маршруты любви. Все на природу через торрент бесплатно!
    Комментировать посты могут только пользователи прошедшие не сложную регистрацию
    Показать сообщения:    

    Маршруты любви. Все на природу через торрент
    Скачать бесплатно Маршруты любви. Все на природу
    Маршруты любви. Все на природу скачать торрент
    Маршруты любви. Все на природу смотреть онлайн
    Cкачать фильм Маршруты любви. Все на природу бесплатно
    Маршруты любви. Все на природу скачать торрент в хорошем качестве
    Маршруты любви. Все на природу смотреть онлайн бесплатно в хорошем качестве


    Вы не можете начинать темы
    Вы не можете отвечать на сообщения
    Вы не можете редактировать свои сообщения
    Вы не можете удалять свои сообщения
    Вы не можете голосовать в опросах
    Вы не можете прикреплять файлы к сообщениям
    Вы можете скачивать файлы