Ссылка на приватное зеркало нашего сайта всего за 1$. Внимание количество ограничено!!!

2 сезон

iTunes

1 сезон

1

iTunes

iTunes

iTunes

1 сезон

RePack

30

ИГРА 18+

pack

ВАЖНО

!!Акция!!

Alien_RageХит недели

RePack

MK11
pack

Забери бонус

RePack

jed

!!Акция!!

Alien_Rage

RePack

fifa19

RePack

Assassins Creed: Odyssey

RePack

NEED FOR SPEED™ PAYBACK

4 сезон

9 сезон

Бесстыжие 9 сезон

Все сериалы

все сериалы на PB.wtf

RePack

FAR CRY 5
  

Маршруты любви. Все на природу / Серии: 1-2 из 2 (Борис Рабей) [2020, Мелодрама, WEB-DLRip] pb.wtf

Маршруты любви. Все на природу через торрент pb.wtf

Размер: 2.18 GB | Добавлен: 7 мес. назад | Торрент скачан:28 раз
Скачать  

23-02-2020 09:53 Маршруты любви. Все на природу Скачать торрент  

Маршруты любви. Все на природу
Год выпуска: 2020
Страна: Россия
Жанр: Мелодрама
Продолжительность: ~ 01:30:00
Субтитры: отсутствуют

Режиссер: Борис Рабей



В ролях: Яна Крайнова, Виолетта Давыдовская, Дарья Егорова, Дмитрий Бурукин, Константин Соловьёв, Алексей Коряков, Валерия Яковлева

Описание: Нелли уже тридцать лет, она не замужем, у неё скучная работа и никаких перспектив на горизонте. Чего она только не перепробовала, чтобы наладить личную жизнь! Но счастье не спешит к ней. Когда её бросает очередной парень, Нелли от отчаяния едва не сводит счёты со своей непутёвой жизнью. Подруги Аня и Жанна пытаются ей помочь, но вскоре все трое понимают, что нуждаются в кардинальных переменах. И начать девушки решают с перезагрузки — они решают пройти тренинг на выживание в диких условиях вдали от цивилизации. Две недели по одному из самых экстремальных маршрутов — готовы ли к таким испытаниям изнеженные москвички?..

Качество: WEB-DLRip
Формат: AVI

Видео: XviD build 73, 720x400 (16:9), 25.000 fps, ~ 1500 Kbps (~ 0.210 bit/pixel)
Аудио: 48.0 kHz, AC3 Dolby Digital, 2/0 (L,R) ch, ~ 192 kbps
скриншот  скриншот  скриншот  скриншот  скриншот  

General
Complete name : D:\Razdachi\Marshruty.Ljubvi.2020.WEB-DLRip.GeneralFilm\E01.Marshruty.Ljubvi.avi
Format : AVI
Format/Info : Audio Video Interleave
File size : 1.09 GiB
Duration : 1 h 31 min
Overall bit rate : 1 708 kb/s
Writing application : VirtualDubMod 1.5.10.3 | www.virtualdub-fr.org || (build 2550/release)
Writing library : VirtualDubMod build 2550/release

Video
ID : 0
Format : MPEG-4 Visual
Format profile : Advanced Simple@L5
Format settings : BVOP1 / Custom Matrix
Format settings, BVOP : 1
Format settings, QPel : No
Format settings, GMC : No warppoints
Format settings, Matrix : Custom
Codec ID : XVID
Codec ID/Hint : XviD
Duration : 1 h 31 min
Bit rate : 1 506 kb/s
Width : 720 pixels
Height : 400 pixels
Display aspect ratio : 16:9
Frame rate : 25.000 FPS
Color space : YUV
Chroma subsampling : 4:2:0
Bit depth : 8 bits
Scan type : Progressive
Compression mode : Lossy
Bits/(Pixel*Frame) : 0.209
Stream size : 983 MiB (88%)
Writing library : XviD 73

Audio
ID : 1
Format : AC-3
Format/Info : Audio Coding 3
Commercial name : Dolby Digital
Codec ID : 2000
Duration : 1 h 31 min
Bit rate mode : Constant
Bit rate : 192 kb/s
Channel(s) : 2 channels
Channel layout : L R
Sampling rate : 48.0 kHz
Frame rate : 31.250 FPS (1536 SPF)
Compression mode : Lossy
Stream size : 125 MiB (11%)
Alignment : Split across interleaves
Interleave, duration : 40 ms (1.00 video frame)
Interleave, preload duratio: 500 ms
Service kind : Complete Main

pb.wtf



Скачать Маршруты любви. Все на природу через торрент https://i111.fastpic.ru/big/2020/0223/c0/8476e2cbc6c06c5bd3e4ba069c77a3c0.jpg Скачать фильм Маршруты любви. Все на природу через торрент бесплантно в хорошем качестве Описание: Нелли уже тридцать лет, она не замужем, у неё скучная работа и никаких перспектив на горизонте. Чего она только не перепробовала, ... 10 10 3
Торрент: Зарегистрирован [2020-02-23 09:53] · скачан: 28 раз
Статус: √ проверено
Размер: 2.18 GB
Как cкачать? Как скачать Маршруты любви. Все на природу через торрент | qTorrent

% Раздел Тема Автор DL S | L
Наши сериалы [ 4.67 GB ] Маршруты любви. Все на природу / Серии: 1-2 из 2 [2020 Мело HDTVRip 720p] bober100 Скачать
1 | 0
Наши сериалы [ 2.28 GB ] Маршруты любви. Все на природу / Серии: 1-2 из 2 [2020 Мело WEB-DLRip-AVC] bober100 Скачать
3 | 0
Наши сериалы [ 9.69 GB ] Маршруты любви. Все на природу / Серии: 1-2 из 2 [2020 Мело HDTV 1080i] bober100 Скачать
1 | 0

28-11-2019 20:33  

Отключить всю рекламу на сайте

    Дорогой пользователь! Огромная просьба, поблагодарите релизера, оцените раздачу и оставьте свои комментарий, если Вы скачали Маршруты любви. Все на природу через торрент бесплатно! Внесите свою лепту в развитие PiratBit!
    Комментировать посты могут только пользователи прошедшие не сложную регистрацию
    Показать сообщения:    

    Маршруты любви. Все на природу через торрент
    Скачать бесплатно Маршруты любви. Все на природу
    Маршруты любви. Все на природу скачать торрент
    Маршруты любви. Все на природу смотреть онлайн
    Cкачать фильм Маршруты любви. Все на природу бесплатно
    Маршруты любви. Все на природу скачать торрент в хорошем качестве
    Маршруты любви. Все на природу смотреть онлайн бесплатно в хорошем качестве


    Вы не можете начинать темы
    Вы не можете отвечать на сообщения
    Вы не можете редактировать свои сообщения
    Вы не можете удалять свои сообщения
    Вы не можете голосовать в опросах
    Вы не можете прикреплять файлы к сообщениям
    Вы можете скачивать файлы