Всегда рабочее зеркало без VPN и Proxy просто перед .vidak.icu напиши любое слово или цифру, Пример http://dfr5.vidak.icu

MVO

Лицензия

1 сезон

1

1 сезон

iTunes

1 сезон

13

1 сезон

Deluxe

pack

Рекомендуем

Пиратка

30

ВАЖНО

RePack

MK11

RePack

jed

RePack

fifa19

RePack

RDR2

RePack

NEED FOR SPEED™ PAYBACK

Кинопоиск HD

6 сезон

 Острые козырьки 6 сезон

Все сериалы

все сериалы на PB.wtf

RePack

FAR CRY 5
  
Magnet ссылка

Маршруты любви. Все на природу / Серии: 1-2 из 2 (Борис Рабей) [2020, Мелодрама, WEB-DLRip-AVC] pb.wtf

Маршруты любви. Все на природу через торрент pb.wtf

Размер: 2.28 GB | Добавлен: 2 года 4 мес. назад | Торрент скачан:37 раз
Смотреть онлайн Маршруты любви. Все на природу | Скачать    Ребята, помогите собрать деньги на оплату серверов!!!

23-02-2020 09:53 Маршруты любви. Все на природу Скачать торрент  

Маршруты любви. Все на природу
Год выпуска: 2020
Страна: Россия
Жанр: Мелодрама
Продолжительность: ~ 01:30:00
Субтитры: отсутствуют

Режиссер: Борис Рабей



В ролях: Яна Крайнова, Виолетта Давыдовская, Дарья Егорова, Дмитрий Бурукин, Константин Соловьёв, Алексей Коряков, Валерия Яковлева

Описание: Нелли уже тридцать лет, она не замужем, у неё скучная работа и никаких перспектив на горизонте. Чего она только не перепробовала, чтобы наладить личную жизнь! Но счастье не спешит к ней. Когда её бросает очередной парень, Нелли от отчаяния едва не сводит счёты со своей непутёвой жизнью. Подруги Аня и Жанна пытаются ей помочь, но вскоре все трое понимают, что нуждаются в кардинальных переменах. И начать девушки решают с перезагрузки — они решают пройти тренинг на выживание в диких условиях вдали от цивилизации. Две недели по одному из самых экстремальных маршрутов — готовы ли к таким испытаниям изнеженные москвички?..

Качество: WEB-DLRip-AVC
Формат: MKV

Видео: MPEG-4 AVC, ~ 1600 Кбит/с, 1024x576, 25 кадр/с
Аудио: 48.0 kHz, AC3 Dolby Digital, 2/0 (L,R) ch, ~ 192 kbps
скриншот  скриншот  скриншот  скриншот  скриншот  

General
Unique ID : 205125198640257824319124309779787157376 (0x9A51AD1E20BDF255AA28CB8A53EE0F80)
Complete name : F:\Маршруты любви.(2019).WEB-DLRip.(AVC).Files-x\01.Маршруты любви.(2019).WEB-DLRip.(AVC).by.Серый1779.Files-x.mkv
Format : Matroska
Format version : Version 2
File size : 1.14 GiB
Duration : 1 h 31 min
Overall bit rate : 1 794 kb/s
Encoded date : UTC 2020-02-23 02:00:12
Writing application : mkvmerge v7.8.0 ('River Man') 32bit built on Apr 3 2015 12:11:22
Writing library : libebml v1.3.1 + libmatroska v1.4.2

Video
ID : 1
Format : AVC
Format/Info : Advanced Video Codec
Format profile : High@L4.1
Format settings : CABAC / 9 Ref Frames
Format settings, CABAC : Yes
Format settings, RefFrames : 9 frames
Codec ID : V_MPEG4/ISO/AVC
Duration : 1 h 31 min
Bit rate : 1 600 kb/s
Width : 1 024 pixels
Height : 576 pixels
Display aspect ratio : 16:9
Frame rate mode : Constant
Frame rate : 25.000 FPS
Color space : YUV
Chroma subsampling : 4:2:0
Bit depth : 8 bits
Scan type : Progressive
Bits/(Pixel*Frame) : 0.109
Stream size : 1 022 MiB (87%)
Writing library : x264 core 146 r2538 121396c
Encoding settings : cabac=1 / ref=9 / deblock=1:-2:-1 / analyse=0x3:0x133 / me=umh / subme=9 / psy=1 / psy_rd=1.00:0.15 / mixed_ref=1 / me_range=32 / chroma_me=1 / trellis=2 / 8x8dct=1 / cqm=0 / deadzone=21,11 / fast_pskip=0 / chroma_qp_offset=-3 / threads=18 / lookahead_threads=3 / sliced_threads=0 / nr=0 / decimate=1 / interlaced=0 / bluray_compat=0 / constrained_intra=0 / bframes=9 / b_pyramid=2 / b_adapt=2 / b_bias=0 / direct=1 / weightb=1 / open_gop=0 / weightp=2 / keyint=250 / keyint_min=25 / scenecut=40 / intra_refresh=0 / rc=2pass / mbtree=0 / bitrate=1600 / ratetol=1.0 / qcomp=0.60 / qpmin=0 / qpmax=69 / qpstep=4 / cplxblur=20.0 / qblur=0.5 / ip_ratio=1.40 / pb_ratio=1.30 / aq=2:1.00
Default : Yes
Forced : No
Color range : Limited
Color primaries : BT.709
Transfer characteristics : BT.709
Matrix coefficients : BT.709

Audio
ID : 2
Format : AC-3
Format/Info : Audio Coding 3
Format settings, Endianness : Big
Codec ID : A_AC3
Duration : 1 h 31 min
Bit rate mode : Constant
Bit rate : 192 kb/s
Channel(s) : 2 channels
Channel positions : Front: L R
Sampling rate : 48.0 kHz
Frame rate : 31.250 FPS (1536 SPF)
Bit depth : 16 bits
Compression mode : Lossy
Stream size : 125 MiB (11%)
Service kind : Complete Main
Default : Yes
Forced : No

pb.wtf



Скачать Маршруты любви. Все на природу через торрент https://i111.fastpic.ru/big/2020/0223/b0/e9f0f0e6489ee7fddc01b4d4ade6e2b0.jpg Скачать, смотреть онлайн Маршруты любви. Все на природу бесплантно в хорошем качестве Описание: Нелли уже тридцать лет, она не замужем, у неё скучная работа и никаких перспектив на горизонте. Чего она только не перепробовала, ... 9 10 3
Торрент: Зарегистрирован [2020-02-23 09:53] · скачан: 37 раз
Статус: √ проверено
Размер: 2.28 GB
Как cкачать? Как скачать Маршруты любви. Все на природу через торрент | UTorrent

% Раздел Тема Автор DL S | L
Наши сериалы [ 4.67 GB ] Маршруты любви. Все на природу / Серии: 1-2 из 2 [2020 Мело HDTVRip 720p] bober100 Скачать
1 | 0
Наши сериалы [ 2.18 GB ] Маршруты любви. Все на природу / Серии: 1-2 из 2 [2020 Мело WEB-DLRip] bober100 Скачать
1 | 0
Наши сериалы [ 9.69 GB ] Маршруты любви. Все на природу / Серии: 1-2 из 2 [2020 Мело HDTV 1080i] bober100 Скачать
1 | 0

28-11-2019 20:33  

Отключить всю рекламу на сайте

    Дорогой пользователь! Огромная просьба, поблагодарите релизера, оцените раздачу и оставьте свои комментарий, если Вы скачали Маршруты любви. Все на природу через торрент бесплатно!
    Комментировать посты могут только пользователи прошедшие не сложную регистрацию
    Показать сообщения:    

    Маршруты любви. Все на природу через торрент
    Скачать бесплатно Маршруты любви. Все на природу
    Маршруты любви. Все на природу скачать торрент
    Маршруты любви. Все на природу смотреть онлайн
    Cкачать фильм Маршруты любви. Все на природу бесплатно
    Маршруты любви. Все на природу скачать торрент в хорошем качестве
    Маршруты любви. Все на природу смотреть онлайн бесплатно в хорошем качестве


    Вы не можете начинать темы
    Вы не можете отвечать на сообщения
    Вы не можете редактировать свои сообщения
    Вы не можете удалять свои сообщения
    Вы не можете голосовать в опросах
    Вы не можете прикреплять файлы к сообщениям
    Вы можете скачивать файлы