Всегда рабочее зеркало без VPN и Proxy просто перед .vidak.icu напиши любое слово или цифру, Пример http://idzi.vidak.icu

MVO

2 сезон

2 сезон

1

1 сезон

iTunes

2 сезон

13

1 сезон

Deluxe

pack

Рекомендуем

Пиратка

30

ВАЖНО

RePack

MK11

RePack

jed

RePack

fifa19

RePack

RDR2

RePack

NEED FOR SPEED™ PAYBACK

Кинопоиск HD

6 сезон

 Острые козырьки 6 сезон

Все сериалы

все сериалы на PB.wtf

RePack

FAR CRY 5

Anonymous, нам критически не хватает 5601 руб. на оплату серверов и переферии за Апрель, помоги нам пожалуйста, вся надежда только на тебя. В благодарность мы отключим тебе всю рекламу на сайте!

×
  
Magnet ссылка

Удовлетворение / Satisfactions (Gary Graver) [1983 г., Adult, Comedy, Drama, DVDRip] pb.wtf

Удовлетворение через торрент pb.wtf

Размер: 1.36 GB | Добавлен: 2 года 2 мес. назад | Торрент скачан:181 раз
Смотреть онлайн Удовлетворение | Скачать    Ребята, помогите собрать деньги на оплату серверов!!!

24-02-2020 11:11 Удовлетворение Скачать торрент  

Удовлетворение / Satisfactions
Год выпуска: 1983

Страна: США

Жанр: Adult, Comedy, Drama

Продолжительность: 01:23:29

Режиссер: Gary Graver

rating

В ролях:
Rhonda Jo Petty ... Connie Stone
Kay Parker ... Shannon
Robert Kerman ... Dan (as R. Bolla)
John Leslie ... Carl
Eric Edwards ... Gary
Laura Lazare ... Tess Hunter (as Laura Lazane) (as Laura Lazarr)
Ron Jeremy ... Murray
Herschel Savage ... Chuck
Jon Martin ... Bobby
Danny Weirdman ... Ted (as Danny Wierdman)
Honey Wilder ... Elaine Stone
John Alderman ... Bud Stone (as Frank Hollowell)
Chrissie Beauchamp ... Linda (as Chrissy Beauchand)
Cara Lott ... Dee
Carmel ... Margo (as Carmel Carson)

Описание: A barmaid using her buxom figure to console a dumped guy is just one link in a chain of events that causes various men and women to reach sexual satisfaction.
Качество: DVDRip
Формат: MKV
Видео: 716x480, AVC, 2070 Кбит/сек
Аудио: Английский, AC3, 2 ch, 224 Кбит/сек
Видео
Идентификатор : 1
Формат : AVC
Формат/Информация : Advanced Video Codec
Профиль формата : Main@L4
Настройки формата : CABAC / 16 Ref Frames
Параметр CABAC формата : Да
Параметр RefFrames формата : 16 кадров
Идентификатор кодека : V_MPEG4/ISO/AVC
Продолжительность : 1 ч. 23 м.
Битрейт : 2070 Кбит/сек
Ширина : 716 пикселей
Высота : 480 пикселей
Соотношение сторон : 4:3
Соотношение сторон в оригинале : 4:3
Режим частоты кадров : Постоянный
Частота кадров : 29,970 (30000/1001) кадров/сек
Цветовое пространство : YUV
Субдискретизация насыщенности : 4:2:0
Битовая глубина : 8 бит
Тип развёртки : Прогрессивная
Бит/(Пиксели*Кадры) : 0.201
Размер потока : 1,21 Гбайт (88%)
Библиотека кодирования : x264 core 157 r2935 545de2f
Настройки программы : cabac=1 / ref=16 / deblock=1:-1:-1 / analyse=0x1:0x131 / me=tesa / subme=11 / psy=1 / psy_rd=1.00:0.15 / mixed_ref=1 / me_range=24 / chroma_me=1 / trellis=2 / 8x8dct=0 / cqm=0 / deadzone=21,11 / fast_pskip=0 / chroma_qp_offset=-3 / threads=15 / lookahead_threads=3 / sliced_threads=0 / nr=0 / decimate=1 / interlaced=0 / bluray_compat=0 / constrained_intra=0 / bframes=16 / b_pyramid=2 / b_adapt=2 / b_bias=0 / direct=3 / weightb=1 / open_gop=0 / weightp=2 / keyint=300 / keyint_min=30 / scenecut=40 / intra_refresh=0 / rc_lookahead=60 / rc=crf / mbtree=1 / crf=18.0 / qcomp=0.60 / qpmin=0 / qpmax=69 / qpstep=4 / vbv_maxrate=20000 / vbv_bufsize=25000 / crf_max=0.0 / nal_hrd=none / filler=0 / ip_ratio=1.40 / aq=1:1.00
Default : Да
Forced : Нет
Цветовой диапазон : Limited
Основные цвета : BT.601 NTSC
Характеристики трансфера : BT.709
Коэффициенты матрицы : BT.601

Аудио
Идентификатор : 2
Формат : AC-3
Формат/Информация : Audio Coding 3
Коммерческое название : Dolby Digital
Идентификатор кодека : A_AC3
Продолжительность : 1 ч. 23 м.
Вид битрейта : Постоянный
Битрейт : 224 Кбит/сек
Каналы : 2 канала
ChannelLayout : L R
Частота : 48,0 КГц
Частота кадров : 31,250 кадров/сек (1536 SPF)
Битовая глубина : 16 бит
Метод сжатия : С потерями
Задержка видео : -5 мс.
Размер потока : 134 Мбайт (10%)
Заголовок : Stereo
ServiceKind/String : Complete Main
Default : Да
Forced : Нет

скриншот  

pb.wtf



pack Скачать Удовлетворение через торрент https://pic1.kartinco.top/images/12/dt68u.jpg Скачать, смотреть онлайн Удовлетворение бесплантно в хорошем качестве Описание: A barmaid using her buxom figure to console a dumped guy is just one link in a chain of events that causes various men and women ... 9.2 10 6
Info! Золотая раздача, скачанное не засчитывается.
Торрент: Зарегистрирован [2020-02-24 11:11] · скачан: 181 раз
Статус: √ проверено
Размер: 1.36 GB
Как cкачать? Как скачать Удовлетворение через торрент | UTorrent

% Раздел Тема Автор DL S | L
Порно фильмы без сюжета [ 2.46 GB ] Anal Craving Satisfaction / Анальная Жажда Удовлетворения [2019 All Sex Anal Blowjobs Lingerie Small Tits WEB-DL] Venom Скачать
1 | 0
Гонзо [ 1.29 GB ] Удовлетворение Супер Шлюх / Super Slut Satisfaction [2017 All Sex Oral Gonzo Facial WEB-DLRip 540p] Split Scenes sheker187 Скачать
1 | 0
Порно фильмы с сюжетом [ 610 MB ] Французское Удовлетворение / French Satisfaction [Ribu] [1983 All Sex Anal DVDRip] Dmitry86 Скачать
1 | 0

28-11-2019 20:33  

Отключить всю рекламу на сайте

    Дорогой пользователь! Огромная просьба, поблагодарите релизера, оцените раздачу и оставьте свои комментарий, если Вы скачали Удовлетворение через торрент бесплатно!
    Комментировать посты могут только пользователи прошедшие не сложную регистрацию
    Показать сообщения:    

    Удовлетворение через торрент
    Скачать бесплатно Удовлетворение
    Удовлетворение скачать торрент
    Удовлетворение смотреть онлайн
    Cкачать фильм Удовлетворение бесплатно
    Удовлетворение скачать торрент в хорошем качестве
    Удовлетворение смотреть онлайн бесплатно в хорошем качестве


    Вы не можете начинать темы
    Вы не можете отвечать на сообщения
    Вы не можете редактировать свои сообщения
    Вы не можете удалять свои сообщения
    Вы не можете голосовать в опросах
    Вы не можете прикреплять файлы к сообщениям
    Вы можете скачивать файлы