Ссылка на приватное зеркало нашего сайта всего за 1$. Внимание количество ограничено!!!

2 сезон

iTunes

1 сезон

1

2 сезон

2 сезон

iTunes

1 сезон

RePack

30

Ultimate

ВАЖНО

ИГРА 18+

pack

RePack

MK11
pack

Забери бонус

RePack

jed

!!Акция!!

Alien_Rage

RePack

fifa19

RePack

Assassins Creed: Odyssey

RePack

NEED FOR SPEED™ PAYBACK

4 сезон

9 сезон

Бесстыжие 9 сезон

Все сериалы

все сериалы на PB.wtf

RePack

FAR CRY 5
  

Старик с пистолетом / The Old Man & the Gun (Дэвид Лоури) [2018, Драма, комедия, криминал, биография, BD Remux 1080p] DUB [iTunes] +AVO [М. Яроцкий (Kyberpunk)] pb.wtf

Старик с пистолетом через торрент pb.wtf

Размер: 25.36 GB | Добавлен: 8 мес. назад | Торрент скачан:11 раз
Скачать  

25-02-2020 05:42 Старик с пистолетом Скачать торрент  

Старик с пистолетом | The Old Man & the Gun
Год выпуска: 2018
Страна: США
Студия: Condé Nast, Endgame Entertainment
Жанр: Драма, комедия, криминал, биография
Продолжительность: 01:33:03
Перевод:
#1: Дублированный | iTunes
#2: Авторский | Михаил Яроцкий (kyberpunk)
Субтитры: Русские (Forced, full), английские

Режиссер: Дэвид Лоури

rating

В ролях: Роберт Редфорд, Сисси Спейсек, Кейси Аффлек, Дэнни Гловер, Том Уэйтс, Тика Самптер, Ари Элизабет Джонсон, Тиган Джонсон, Джин Джонс, Джон Дэвид Вашингтон, Элизабет Мосс

Описание: Правдивая история неисправимого вора Форреста Таккера, который большую часть жизни посвятил обчищению банков и побегу из тюрем. На закате своей беспокойной «карьеры» 78-летний Таккер снова берётся за любимое дело, невзирая на преследование молодого детектива и обязательства перед преданной женой.

Качество: BD Remux 1080p
Формат: MKV

Видео: MPEG-4 AVC, 1920x1080, 34.6 Mbit/s, 23.976 fps
Аудио #01: 48 kHz, AC3, 5.1, 384 Kbps | Дублированный | RUS |
Аудио #02: 48 kHz, AC3, 5.1, 448 Kbps | Авторский | RUS |
Аудио #03: 48 kHz, DTS-HD MA, 5.1, 3595 Kbps | Оригинал | ENG |
скриншот  скриншот  скриншот  скриншот  скриншот  

General
Unique ID : 221486967081472865029609955240090657839 (0xA6A0D6958B750032DAAC1A085771E42F)
Complete name : E:Video111The.Old.Man.&.the.Gun.2018.BDREMUX.1080p.seleZen.mkv
Format : Matroska
Format version : Version 4
File size : 25.4 GiB
Duration : 1 h 33 min
Overall bit rate mode : Variable
Overall bit rate : 39.0 Mb/s
Movie name : The Old Man & the Gun 2018 from селезень
Encoded date : UTC 2020-02-25 04:42:47
Writing application : mkvmerge v40.0.0 ('Old Town Road + Pony') 64-bit
Writing library : libebml v1.3.9 + libmatroska v1.5.2

Video
ID : 1
Format : AVC
Format/Info : Advanced Video Codec
Format profile : High@L4.1
Format settings : CABAC / 4 Ref Frames
Format settings, CABAC : Yes
Format settings, Reference : 4 frames
Codec ID : V_MPEG4/ISO/AVC
Duration : 1 h 33 min
Bit rate mode : Variable
Bit rate : 34.6 Mb/s
Maximum bit rate : 38.0 Mb/s
Width : 1 920 pixels
Height : 1 080 pixels
Display aspect ratio : 16:9
Frame rate mode : Constant
Frame rate : 23.976 (23976/1000) FPS
Original frame rate : 23.976 (24000/1001) FPS
Color space : YUV
Chroma subsampling : 4:2:0
Bit depth : 8 bits
Scan type : Progressive
Bits/(Pixel*Frame) : 0.696
Stream size : 22.5 GiB (89%)
Language : English
Default : Yes
Forced : No

Audio #1
ID : 2
Format : AC-3
Format/Info : Audio Coding 3
Commercial name : Dolby Digital
Codec ID : A_AC3
Duration : 1 h 33 min
Bit rate mode : Constant
Bit rate : 384 kb/s
Channel(s) : 6 channels
Channel layout : L R C LFE Ls Rs
Sampling rate : 48.0 kHz
Frame rate : 31.250 FPS (1536 SPF)
Compression mode : Lossy
Stream size : 256 MiB (1%)
Title : iTunes
Language : Russian
Service kind : Complete Main
Default : Yes
Forced : Yes

Audio #2
ID : 3
Format : AC-3
Format/Info : Audio Coding 3
Commercial name : Dolby Digital
Codec ID : A_AC3
Duration : 1 h 33 min
Bit rate mode : Constant
Bit rate : 448 kb/s
Channel(s) : 6 channels
Channel layout : L R C LFE Ls Rs
Sampling rate : 48.0 kHz
Frame rate : 31.250 FPS (1536 SPF)
Compression mode : Lossy
Stream size : 298 MiB (1%)
Title : AVO [kyberpunk]
Language : Russian
Service kind : Complete Main
Default : No
Forced : No

Audio #3
ID : 4
Format : DTS XLL
Format/Info : Digital Theater Systems
Commercial name : DTS-HD Master Audio
Codec ID : A_DTS
Duration : 1 h 33 min
Bit rate mode : Variable
Bit rate : 3 595 kb/s
Channel(s) : 6 channels
Channel layout : C L R Ls Rs LFE
Sampling rate : 48.0 kHz
Frame rate : 93.750 FPS (512 SPF)
Bit depth : 24 bits
Compression mode : Lossless
Stream size : 2.34 GiB (9%)
Title : Original
Language : English
Default : No
Forced : No

Text #1
ID : 5
Format : UTF-8
Codec ID : S_TEXT/UTF8
Codec ID/Info : UTF-8 Plain Text
Duration : 1 h 19 min
Bit rate : 4 b/s
Count of elements : 43
Stream size : 2.71 KiB (0%)
Title : Forced
Language : Russian
Default : Yes
Forced : Yes

Text #2
ID : 6
Format : UTF-8
Codec ID : S_TEXT/UTF8
Codec ID/Info : UTF-8 Plain Text
Duration : 1 h 26 min
Bit rate : 84 b/s
Count of elements : 1198
Stream size : 53.1 KiB (0%)
Title : Full [Focs]
Language : Russian
Default : No
Forced : No

Text #3
ID : 7
Format : UTF-8
Codec ID : S_TEXT/UTF8
Codec ID/Info : UTF-8 Plain Text
Duration : 1 h 25 min
Bit rate : 56 b/s
Count of elements : 1122
Stream size : 35.2 KiB (0%)
Title : Full
Language : English
Default : No
Forced : No

Text #4
ID : 8
Format : UTF-8
Codec ID : S_TEXT/UTF8
Codec ID/Info : UTF-8 Plain Text
Duration : 1 h 30 min
Bit rate : 69 b/s
Count of elements : 1409
Stream size : 45.8 KiB (0%)
Title : SDH
Language : English
Default : No
Forced : No

Menu
00:00:00.000 : en:Chapter 01
00:03:21.618 : en:Chapter 02
00:08:18.498 : en:Chapter 03
00:13:35.940 : en:Chapter 04
00:19:34.507 : en:Chapter 05
00:23:02.214 : en:Chapter 06
00:26:35.761 : en:Chapter 07
00:30:38.962 : en:Chapter 08
00:34:17.472 : en:Chapter 09
00:38:02.155 : en:Chapter 10
00:41:30.697 : en:Chapter 11
00:44:40.887 : en:Chapter 12
00:48:19.230 : en:Chapter 13
00:50:06.003 : en:Chapter 14
00:53:44.304 : en:Chapter 15
00:56:18.875 : en:Chapter 16
01:00:09.981 : en:Chapter 17
01:04:19.022 : en:Chapter 18
01:09:40.968 : en:Chapter 19
01:14:20.790 : en:Chapter 20
01:18:02.595 : en:Chapter 21
01:21:18.248 : en:Chapter 22
01:24:33.944 : en:Chapter 23
01:26:49.996 : en:Chapter 24

pb.wtf



Скачать Старик с пистолетом через торрент https://img10.lostpic.net/2020/02/25/5d696e4dc0b407f4f9f234e079d9d806.jpg Скачать фильм Старик с пистолетом через торрент бесплантно в хорошем качестве Описание: Правдивая история неисправимого вора Форреста Таккера, который большую часть жизни посвятил обчищению банков и побегу из тюрем. ... 10 10 3
Торрент: Зарегистрирован [2020-02-25 05:42] · скачан: 11 раз
Статус: √ проверено
Размер: 25.36 GB
Как cкачать? Как скачать Старик с пистолетом через торрент | qTorrent

28-11-2019 20:33  

Отключить всю рекламу на сайте

    Дорогой пользователь! Огромная просьба, поблагодарите релизера, оцените раздачу и оставьте свои комментарий, если Вы скачали Старик с пистолетом через торрент бесплатно! Внесите свою лепту в развитие PiratBit!
    Комментировать посты могут только пользователи прошедшие не сложную регистрацию
    Показать сообщения:    

    Старик с пистолетом через торрент
    Скачать бесплатно Старик с пистолетом
    Старик с пистолетом скачать торрент
    Старик с пистолетом смотреть онлайн
    Cкачать фильм Старик с пистолетом бесплатно
    Старик с пистолетом скачать торрент в хорошем качестве
    Старик с пистолетом смотреть онлайн бесплатно в хорошем качестве


    Вы не можете начинать темы
    Вы не можете отвечать на сообщения
    Вы не можете редактировать свои сообщения
    Вы не можете удалять свои сообщения
    Вы не можете голосовать в опросах
    Вы не можете прикреплять файлы к сообщениям
    Вы можете скачивать файлы