Ссылка на приватное зеркало нашего сайта всего за 1$. Внимание количество ограничено!!!

2 сезон

iTunes

1 сезон

1

iTunes

iTunes

iTunes

1 сезон

RePack

30

ИГРА 18+

pack

ВАЖНО

!!Акция!!

Alien_RageХит недели

RePack

MK11
pack

Забери бонус

RePack

jed

!!Акция!!

Alien_Rage

RePack

fifa19

RePack

Assassins Creed: Odyssey

RePack

NEED FOR SPEED™ PAYBACK

4 сезон

9 сезон

Бесстыжие 9 сезон

Все сериалы

все сериалы на PB.wtf

RePack

FAR CRY 5
  

Родственные связи / Сезон: 2 / Серии: 1-8 из 8 (Владимир Харченко-Куликовский) [2020, Мелодрама, WEB-DL 720p] pb.wtf

Родственные связи через торрент pb.wtf

Раздают: 1 [ 0 KB/s ]
Размер: 5.07 GB | Добавлен: 7 мес. назад | Торрент скачан:11 раз
Скачать  

25-02-2020 07:36 Родственные связи Скачать торрент  

Родственные связи
Год выпуска: 2020
Страна: Россия, Украина
Жанр: Мелодрама
Продолжительность: ~ 00:47:00
Перевод: не требуется
Субтитры: отсутствуют

Режиссер: Владимир Харченко-Куликовский

В ролях: Алексей Зубков, Алиса Лукшина, Анна Абраменок, Богдан Рубан, Валерий Легин, Виталий Иванченко, Галина Корнеева, Даниил Мирешкин, Ева Шевченко-Головко, Екатерина Тышкевич, Елена Узлюк, Ирина Кудашева, Кира Подольская, Маргарита Бахтина, Олег Коркушко, Олег Москаленко, Ольга Арнтгольц, Ольга Кияшко, Ольга Когут, Ринат Хабибулин, Сергей Бережко, Сергей Кияшко, Сергей Фролов, Татьяна Михина, Юлия Гапчук

Описание: Еще недавно в семье Исаевых все наладилось, но мир оказался недолгим. Фирма Петра на грани разорения, он скрывает это от жены. На помощь ему приходит Вера - она сводит его с мэром города - тот готовит грандиозное строительство на месте интерната, в котором некогда училась Маша. А тем временем Маша встречает свою первую любовь, отца Насти - Станислава, которого она давно считала погибшим…

Качество: WEB-DL 720p
Формат: MKV

Видео: MPEG-4 AVC, ~ 1734 Кбит/с, 1280х720, 25 кадр/с
Аудио: 48.0 kHz, AC3 Dolby Digital, 2/0 (L,R) ch, ~ 192 kbps
скриншот  скриншот  скриншот  скриншот  скриншот  

General
Unique ID : 244531355405507313464456035169916509859 (0xB7F706A614EDA79629E8DDEC5DD55EA3)
Complete name : C:05.Родственные связи.s02.E01.(2020).WEB-DL (720p).by.Nicodem.Files-x.mkv
Format : Matroska
File size : 664 MiB
Duration : 47mn 12s
Overall bit rate : 1 965 Kbps
Writing application : Lavf56.36.100
Writing library : Lavf56.36.100

Video
ID : 1
Format : AVC
Format/Info : Advanced Video Codec
Format profile : High@L3.1
Format settings, CABAC : Yes
Format settings, ReFrames : 3 frames
Codec ID : V_MPEG4/ISO/AVC
Duration : 47mn 12s
Bit rate : 1 734 Kbps
Width : 1 280 pixels
Height : 720 pixels
Display aspect ratio : 16:9
Frame rate : 25.000 fps
Color space : YUV
Chroma subsampling : 4:2:0
Bit depth : 8 bits
Scan type : Progressive
Bits/(Pixel*Frame) : 0.075
Stream size : 585 MiB (88%)
Language : English

Audio
ID : 2
Format : AC-3
Format/Info : Audio Coding 3
Mode extension : CM (complete main)
Codec ID : A_AC3
Duration : 47mn 12s
Bit rate mode : Constant
Bit rate : 192 Kbps
Channel(s) : 2 channels
Channel positions : Front: L R
Sampling rate : 48.0 KHz
Bit depth : 16 bits
Compression mode : Lossy
Delay relative to video : 1mn 5s
Stream size : 64.8 MiB (10%)
Language : English / un

Внимание! Раздача ведётся путём добавления новых серий; при каждом добавлении создfётся новый торрент. Чтобы начать докачку новой серии, пользователям необходимо сделать следующее: (1) остановить скачивание, (2) удалить старый торрент у себя из клиента (старые серии удалять не надо), (3) скачать новый торрент и запустить его у себя в клиенте вместо старого, при этом указать клиенту путь в старую папку куда и должно происходить скачивание новых серий.

Ваш клиент при этом должен произвести хеширование (проверку) старой папки (если не производит сам - помогите ему сделать это), и будет докачивать только те серии которых у вас ещё нет. Старые серии при этом не удаляются, а продолжают раздаваться!

Eсли вы уже удалили старые серии, то предотвратить повторную закачку старых серий можно, отжав галочку в соответсвующих местах при запуске нового торрента.
pb.wtf



Скачать Родственные связи через торрент https://i111.fastpic.ru/big/2020/0224/f5/78073c4ba9f1459c459d2ea099d216f5.jpg Скачать фильм Родственные связи через торрент бесплантно в хорошем качестве Описание: Еще недавно в семье Исаевых все наладилось, но мир оказался недолгим. Фирма Петра на грани разорения, он скрывает это от жены. На ... 7 10 3
Торрент: Зарегистрирован [2020-03-01 15:38] · скачан: 11 раз
Статус: √ проверено
Размер: 5.07 GB
Как cкачать? Как скачать Родственные связи через торрент | qTorrent

% Раздел Тема Автор DL S | L
Наши сериалы [ 4.63 GB ] Родственные связи / Сезон: 2 / Серии: 1-8 из 8 [2020 Мело WEB-DLRip-AVC] bober100 Скачать
1 | 0
Наши сериалы [ 4.67 GB ] Родственные связи / Сезон: 2 / Серии: 1-8 из 8 [2020 Мело WEB-DLRip] bober100 Скачать
1 | 0

28-11-2019 20:33  

Отключить всю рекламу на сайте

    Дорогой пользователь! Огромная просьба, поблагодарите релизера, оцените раздачу и оставьте свои комментарий, если Вы скачали Родственные связи через торрент бесплатно! Внесите свою лепту в развитие PiratBit!
    Комментировать посты могут только пользователи прошедшие не сложную регистрацию
    Показать сообщения:    

    Родственные связи через торрент
    Скачать бесплатно Родственные связи
    Родственные связи скачать торрент
    Родственные связи смотреть онлайн
    Cкачать фильм Родственные связи бесплатно
    Родственные связи скачать торрент в хорошем качестве
    Родственные связи смотреть онлайн бесплатно в хорошем качестве


    Вы не можете начинать темы
    Вы не можете отвечать на сообщения
    Вы не можете редактировать свои сообщения
    Вы не можете удалять свои сообщения
    Вы не можете голосовать в опросах
    Вы не можете прикреплять файлы к сообщениям
    Вы можете скачивать файлы