Ссылка на приватное зеркало нашего сайта всего за 1$. Внимание количество ограничено!!!

2 сезон

iTunes

1 сезон

1

iTunes

iTunes

iTunes

1 сезон

RePack

30

ИГРА 18+

pack

ВАЖНО

!!Акция!!

Alien_RageХит недели

RePack

MK11
pack

Забери бонус

RePack

jed

!!Акция!!

Alien_Rage

RePack

fifa19

RePack

Assassins Creed: Odyssey

RePack

NEED FOR SPEED™ PAYBACK

4 сезон

9 сезон

Бесстыжие 9 сезон

Все сериалы

все сериалы на PB.wtf

RePack

FAR CRY 5
  

Невский. Тень Архитектора / Сезон: 4 / Серии: 1-30 из 30 (Михаил Вассербаум, Дмитрий Аверин) [2020, Детектив, драма, криминал, WEBRip] pb.wtf

Невский. Тень Архитектора через торрент pb.wtf

Размер: 18.86 GB | Добавлен: 6 мес. назад | Торрент скачан:38 раз
Скачать  

25-02-2020 19:43 Невский. Тень Архитектора Скачать торрент  

Невский. Тень Архитектора
Год выпуска: 2020
Страна: Россия
Жанр: Детектив, драма, криминал
Продолжительность: ~ 00:48:00
Перевод: Не требуется
Субтитры: отсутствуют

Режиссер: Михаил Вассербаум, Дмитрий Аверин



В ролях: Антон Васильев (III), Андрей Гульнев, Мария Капустинская, Сергей Кошонин, Юрий Архангельский, Роман Притула, Иван Забашта, Дмитрий Соловьёв (II), Анастасия Забирова, Наталья Мызникова, Александр Мосолов (I), Элис Дарс, Степан Бекетов, Михаил Карпенко, Виктор Шуралев, Елена Карпова, Александр Волков (III), Ольга Афанасьева

Описание: Павел Семёнов принимает решение вернуться на службу в полицию: он вновь занимает пост начальника уголовного розыска УМВД по Центральному району. Вернуться в правоохранительные органы Семёнова заставляет трагическая гибель близкого человека. Непосредственным начальником вновь вернувшегося Павла становится подполковник Андрей Михайлов, перед которым поставлена задача навести порядок не только в самом Управлении, но и на улицах района. Михайлов не знает, что Семёнов лично расправился с убийцами близкого человека, и что его возращение на службу нечто большее, чем просто работа: преступникам удаётся избежать справедливого наказания, и Павел вершит правосудие собственными руками. И помогает ему в этом один из бывших членов группы «Архитекторов», который стремится сделать из Семёнова такого же профессионального ликвидатора, которым и является сам.

Качество: WEBRip
Формат: AVI

Видео: 720x400 (1.80:1), 25 fps, XviD build 73 ~1600 kbps avg, 0.22 bit/pixel
Аудио: 48.0 kHz, AC3 Dolby Digital, 2/0 (L,R) ch, ~ 192 kbps
скриншот  скриншот  скриншот  скриншот  

General
Complete name : H:\Невский-3. Тень архитектора.(2020).WEB-DLRip.Files-x\01.Невский. Тень Архитектора.s04.(2020).WEB-DLRip.Files-x.avi
Format : AVI
Format/Info : Audio Video Interleave
File size : 636 MiB
Duration : 49mn 22s
Overall bit rate : 1 801 Kbps
Writing application : VirtualDubMod 1.5.10.3 | www.virtualdub-fr.org || (build 2550/release)
Writing library : VirtualDubMod build 2550/release

Video
ID : 0
Format : MPEG-4 Visual
Format profile : Advanced Simple@L5
Format settings, BVOP : 1
Format settings, QPel : No
Format settings, GMC : No warppoints
Format settings, Matrix : Custom
Codec ID : XVID
Codec ID/Hint : XviD
Duration : 49mn 22s
Bit rate : 1 600 Kbps
Width : 720 pixels
Height : 400 pixels
Display aspect ratio : 16:9
Frame rate : 25.000 fps
Color space : YUV
Chroma subsampling : 4:2:0
Bit depth : 8 bits
Scan type : Progressive
Compression mode : Lossy
Bits/(Pixel*Frame) : 0.222
Stream size : 565 MiB (89%)
Writing library : XviD 73

Audio
ID : 1
Format : AC-3
Format/Info : Audio Coding 3
Mode extension : CM (complete main)
Codec ID : 2000
Duration : 49mn 22s
Bit rate mode : Constant
Bit rate : 192 Kbps
Channel(s) : 2 channels
Channel positions : Front: L R
Sampling rate : 48.0 KHz
Bit depth : 16 bits
Compression mode : Lossy
Stream size : 67.8 MiB (11%)
Alignment : Split accross interleaves
Interleave, duration : 40 ms (1.00 video frame)
Interleave, preload duration : 500 ms

Внимание! Раздача ведётся путём добавления новых серий. При каждом добавлении создаётся новый торрент.
Чтобы начать докачку новой серии, пользователям необходимо сделать следующее:
1. Остановить скачивание.
2. Удалить старый торрент у себя из клиента (старые серии удалять не надо).
3. Скачать новый торрент и запустить его у себя в клиенте вместо старого, при этом указать клиенту путь в старую папку куда и должно происходить скачивание новых серий. Ваш клиент при этом должен произвести хеширование (проверку) старой папки и будет докачивать только те серии, которых у вас ещё нет. Старые серии при этом не удаляются, а продолжают раздаваться! Eсли вы уже удалили старые серии, то предотвратить повторную закачку старых серий можно, отжав галочку в соответствующих местах при запуске нового торрента.
pb.wtf



Скачать Невский. Тень Архитектора через торрент https://funkyimg.com/i/32AUw.jpg Скачать фильм Невский. Тень Архитектора через торрент бесплантно в хорошем качестве Описание: Павел Семёнов принимает решение вернуться на службу в полицию: он вновь занимает пост начальника уголовного розыска УМВД по ... 10 10 3
Торрент: Зарегистрирован [2020-03-27 14:19] · скачан: 38 раз
Статус: √ проверено
Размер: 18.86 GB
Как cкачать? Как скачать Невский. Тень Архитектора через торрент | qTorrent

% Раздел Тема Автор DL S | L
Наши сериалы [ 38.65 GB ] Невский. Тень Архитектора / Сезон: 4 / Серии: 1-30 из 30 [2020 WEBRip 720p] bober100 Скачать
1 | 0
Наши сериалы [ 22.67 GB ] Невский. Тень Архитектора / Сезон: 4 / Серии: 1-30 из 30 [2020 WEBRip-AVC] bober100 Скачать
1 | 0
Наши сериалы [ 64.61 GB ] Невский. Тень Архитектора / Сезон: 4 / Серии: 1-30 из 30 [2020 WEBRip 1080p] bober100 Скачать
1 | 0
Наши сериалы [ 19.03 GB ] Невский. Тень Архитектора / Сезон: 4 / Серии: 1-30 из 30 [2020 SATRip] bober100 Скачать
1 | 0
Наши сериалы [ 17.58 GB ] Невский. Тень Архитектора / Сезон: 4 / Серии: 1-30 из 30 [2020 SATRip-AVC] aleksan55 Скачать
3 | 0

28-11-2019 20:33  

Отключить всю рекламу на сайте

    Дорогой пользователь! Огромная просьба, поблагодарите релизера, оцените раздачу и оставьте свои комментарий, если Вы скачали Невский. Тень Архитектора через торрент бесплатно! Внесите свою лепту в развитие PiratBit!
    Комментировать посты могут только пользователи прошедшие не сложную регистрацию
    Показать сообщения:    

    Невский. Тень Архитектора через торрент
    Скачать бесплатно Невский. Тень Архитектора
    Невский. Тень Архитектора скачать торрент
    Невский. Тень Архитектора смотреть онлайн
    Cкачать фильм Невский. Тень Архитектора бесплатно
    Невский. Тень Архитектора скачать торрент в хорошем качестве
    Невский. Тень Архитектора смотреть онлайн бесплатно в хорошем качестве


    Вы не можете начинать темы
    Вы не можете отвечать на сообщения
    Вы не можете редактировать свои сообщения
    Вы не можете удалять свои сообщения
    Вы не можете голосовать в опросах
    Вы не можете прикреплять файлы к сообщениям
    Вы можете скачивать файлы