Ссылка на приватное зеркало нашего сайта всего за 1$. Внимание количество ограничено!!!

2 сезон

iTunes

1 сезон

1

iTunes

iTunes

iTunes

1 сезон

RePack

30

ИГРА 18+

pack

ВАЖНО

!!Акция!!

Alien_RageХит недели

RePack

MK11
pack

Забери бонус

RePack

jed

!!Акция!!

Alien_Rage

RePack

fifa19

RePack

Assassins Creed: Odyssey

RePack

NEED FOR SPEED™ PAYBACK

4 сезон

9 сезон

Бесстыжие 9 сезон

Все сериалы

все сериалы на PB.wtf

RePack

FAR CRY 5
  

Невский. Тень Архитектора / Сезон: 4 / Серии: 1-30 из 30 (Михаил Вассербаум, Дмитрий Аверин) [2020, Детектив, драма, криминал, WEBRip-AVC] pb.wtf

Невский. Тень Архитектора через торрент pb.wtf

Размер: 22.67 GB | Добавлен: 7 мес. назад | Торрент скачан:11 раз
Скачать  

25-02-2020 20:20 Невский. Тень Архитектора Скачать торрент  

Невский. Тень Архитектора
Год выпуска: 2020
Страна: Россия
Жанр: Детектив, драма, криминал
Продолжительность: ~ 00:48:00
Перевод: Не требуется
Субтитры: отсутствуют

Режиссер: Михаил Вассербаум, Дмитрий Аверин



В ролях: Антон Васильев (III), Андрей Гульнев, Мария Капустинская, Сергей Кошонин, Юрий Архангельский, Роман Притула, Иван Забашта, Дмитрий Соловьёв (II), Анастасия Забирова, Наталья Мызникова, Александр Мосолов (I), Элис Дарс, Степан Бекетов, Михаил Карпенко, Виктор Шуралев, Елена Карпова, Александр Волков (III), Ольга Афанасьева

Описание: Павел Семёнов принимает решение вернуться на службу в полицию: он вновь занимает пост начальника уголовного розыска УМВД по Центральному району. Вернуться в правоохранительные органы Семёнова заставляет трагическая гибель близкого человека. Непосредственным начальником вновь вернувшегося Павла становится подполковник Андрей Михайлов, перед которым поставлена задача навести порядок не только в самом Управлении, но и на улицах района. Михайлов не знает, что Семёнов лично расправился с убийцами близкого человека, и что его возращение на службу нечто большее, чем просто работа: преступникам удаётся избежать справедливого наказания, и Павел вершит правосудие собственными руками. И помогает ему в этом один из бывших членов группы «Архитекторов», который стремится сделать из Семёнова такого же профессионального ликвидатора, которым и является сам.

Качество: WEBRip-AVC
Формат: MKV

Видео: MPEG-4 AVC, ~ 2000 Кбит/с, 1024x576, 25 кадр/с
Аудио: 48.0 kHz, AC3 Dolby Digital, 2/0 (L,R) ch, ~ 192 kbps
скриншот  скриншот  скриншот  скриншот  скриншот  

General
Unique ID : 241656351174076891141751239967767315553 (0xB5CD51FF088E7DC999399D3580CCC461)
Complete name : F:\Невский-4. Тень архитектора.(2020).WEBRip.(AVC).Files-x\01.Невский. Тень Архитектора.s04.(2020).WEBRip.(AVC).by.Серый1779.Files-x.mkv
Format : Matroska
Format version : Version 2
File size : 775 MiB
Duration : 49 min 22 s
Overall bit rate : 2 193 kb/s
Encoded date : UTC 2020-02-25 20:04:37
Writing application : mkvmerge v7.8.0 ('River Man') 32bit built on Apr 3 2015 12:11:22
Writing library : libebml v1.3.1 + libmatroska v1.4.2

Video
ID : 1
Format : AVC
Format/Info : Advanced Video Codec
Format profile : High@L4.1
Format settings : CABAC / 9 Ref Frames
Format settings, CABAC : Yes
Format settings, RefFrames : 9 frames
Codec ID : V_MPEG4/ISO/AVC
Duration : 49 min 22 s
Bit rate : 2 000 kb/s
Width : 1 024 pixels
Height : 576 pixels
Display aspect ratio : 16:9
Frame rate mode : Constant
Frame rate : 25.000 FPS
Color space : YUV
Chroma subsampling : 4:2:0
Bit depth : 8 bits
Scan type : Progressive
Bits/(Pixel*Frame) : 0.136
Stream size : 691 MiB (89%)
Writing library : x264 core 146 r2538 121396c
Encoding settings : cabac=1 / ref=9 / deblock=1:-2:-1 / analyse=0x3:0x133 / me=umh / subme=9 / psy=1 / psy_rd=1.00:0.15 / mixed_ref=1 / me_range=32 / chroma_me=1 / trellis=2 / 8x8dct=1 / cqm=0 / deadzone=21,11 / fast_pskip=0 / chroma_qp_offset=-3 / threads=18 / lookahead_threads=3 / sliced_threads=0 / nr=0 / decimate=1 / interlaced=0 / bluray_compat=0 / constrained_intra=0 / bframes=9 / b_pyramid=2 / b_adapt=2 / b_bias=0 / direct=1 / weightb=1 / open_gop=0 / weightp=2 / keyint=250 / keyint_min=25 / scenecut=40 / intra_refresh=0 / rc=2pass / mbtree=0 / bitrate=2000 / ratetol=1.0 / qcomp=0.60 / qpmin=0 / qpmax=69 / qpstep=4 / cplxblur=20.0 / qblur=0.5 / ip_ratio=1.40 / pb_ratio=1.30 / aq=2:1.00
Default : Yes
Forced : No
Color range : Limited
Color primaries : BT.709
Transfer characteristics : BT.709
Matrix coefficients : BT.709

Audio
ID : 2
Format : AC-3
Format/Info : Audio Coding 3
Format settings, Endianness : Big
Codec ID : A_AC3
Duration : 49 min 22 s
Bit rate mode : Constant
Bit rate : 192 kb/s
Channel(s) : 2 channels
Channel positions : Front: L R
Sampling rate : 48.0 kHz
Frame rate : 31.250 FPS (1536 SPF)
Bit depth : 16 bits
Compression mode : Lossy
Stream size : 67.8 MiB (9%)
Service kind : Complete Main
Default : Yes
Forced : No

Внимание! Раздача ведётся путём добавления новых серий. При каждом добавлении создаётся новый торрент.
Чтобы начать докачку новой серии, пользователям необходимо сделать следующее:
1. Остановить скачивание.
2. Удалить старый торрент у себя из клиента (старые серии удалять не надо).
3. Скачать новый торрент и запустить его у себя в клиенте вместо старого, при этом указать клиенту путь в старую папку куда и должно происходить скачивание новых серий. Ваш клиент при этом должен произвести хеширование (проверку) старой папки и будет докачивать только те серии, которых у вас ещё нет. Старые серии при этом не удаляются, а продолжают раздаваться! Eсли вы уже удалили старые серии, то предотвратить повторную закачку старых серий можно, отжав галочку в соответствующих местах при запуске нового торрента.
pb.wtf



Скачать Невский. Тень Архитектора через торрент https://funkyimg.com/i/32zH2.jpg Скачать фильм Невский. Тень Архитектора через торрент бесплантно в хорошем качестве Описание: Павел Семёнов принимает решение вернуться на службу в полицию: он вновь занимает пост начальника уголовного розыска УМВД по ... 9.6 10 8
Торрент: Зарегистрирован [2020-03-26 16:07] · скачан: 11 раз
Статус: √ проверено
Размер: 22.67 GB
Как cкачать? Как скачать Невский. Тень Архитектора через торрент | qTorrent

% Раздел Тема Автор DL S | L
Наши сериалы [ 38.65 GB ] Невский. Тень Архитектора / Сезон: 4 / Серии: 1-30 из 30 [2020 WEBRip 720p] bober100 Скачать
1 | 0
Наши сериалы [ 18.86 GB ] Невский. Тень Архитектора / Сезон: 4 / Серии: 1-30 из 30 [2020 WEBRip] bober100 Скачать
1 | 0
Наши сериалы [ 64.61 GB ] Невский. Тень Архитектора / Сезон: 4 / Серии: 1-30 из 30 [2020 WEBRip 1080p] bober100 Скачать
1 | 0
Наши сериалы [ 19.03 GB ] Невский. Тень Архитектора / Сезон: 4 / Серии: 1-30 из 30 [2020 SATRip] bober100 Скачать
4 | 0
Наши сериалы [ 17.58 GB ] Невский. Тень Архитектора / Сезон: 4 / Серии: 1-30 из 30 [2020 SATRip-AVC] aleksan55 Скачать
3 | 0

28-11-2019 20:33  

Отключить всю рекламу на сайте

    Дорогой пользователь! Огромная просьба, поблагодарите релизера, оцените раздачу и оставьте свои комментарий, если Вы скачали Невский. Тень Архитектора через торрент бесплатно! Внесите свою лепту в развитие PiratBit!
    Комментировать посты могут только пользователи прошедшие не сложную регистрацию
    Показать сообщения:    

    Невский. Тень Архитектора через торрент
    Скачать бесплатно Невский. Тень Архитектора
    Невский. Тень Архитектора скачать торрент
    Невский. Тень Архитектора смотреть онлайн
    Cкачать фильм Невский. Тень Архитектора бесплатно
    Невский. Тень Архитектора скачать торрент в хорошем качестве
    Невский. Тень Архитектора смотреть онлайн бесплатно в хорошем качестве


    Вы не можете начинать темы
    Вы не можете отвечать на сообщения
    Вы не можете редактировать свои сообщения
    Вы не можете удалять свои сообщения
    Вы не можете голосовать в опросах
    Вы не можете прикреплять файлы к сообщениям
    Вы можете скачивать файлы