Ссылка на приватное зеркало нашего сайта всего за 1$. Внимание количество ограничено!!!

2 сезон

iTunes

1 сезон

1

iTunes

iTunes

iTunes

1 сезон

RePack

30

ИГРА 18+

pack

ВАЖНО

!!Акция!!

Alien_RageХит недели

RePack

MK11
pack

Забери бонус

RePack

jed

!!Акция!!

Alien_Rage

RePack

fifa19

RePack

Assassins Creed: Odyssey

RePack

NEED FOR SPEED™ PAYBACK

4 сезон

9 сезон

Бесстыжие 9 сезон

Все сериалы

все сериалы на PB.wtf

RePack

FAR CRY 5
  

Женские секреты / Жіночі секрети / Сезон: 1 / Серии: 1-12 из 12 (Максим Мехеда) [2020, Мелодрама, SATRip] pb.wtf

Женские секреты через торрент pb.wtf

Размер: 7.81 GB | Добавлен: 7 мес. назад | Торрент скачан:20 раз
Скачать  

25-02-2020 20:43 Женские секреты Скачать торрент  

Женские секреты | Жіночі секрети
Год выпуска: 2020
Страна: Украина
Жанр: Мелодрама
Продолжительность: ~ 00:51:00
Перевод: Не требуется
Субтитры: отсутствуют

Режиссер: Максим Мехеда



В ролях: Валерия Ланская, Прохор Дубравин, Ирина Гришак, Влад Никитюк, Людмила Загорская, Малхаз Абуладзе, Павел Вишняков, Эрик Абрамович, Тарас Цымбалюк, Виктория Литвиненко, Таисия Хвостова, Игорь Петрусенко, Дмитрий Коростылёв

Описание: Жизнь Марты размеренна и благополучна. Она работает психологом в престижном колледже и мечтает выйти замуж за любимого человека. Решив помочь юной студентке Юле, собирающейся избавиться от ребёнка, Марта, вспомнив ошибки своей юности, стремясь уберечь девушку от рокового шага, решается открыть правду отцу девушки. И внезапно встречает свою первую любовь – Ивана. Марте и Ивану судьба словно даёт второй шанс на любовь и доверие. Но смогут ли они простить друг друга и забыть ошибки прошлого? Как сложится судьба Юли?

Качество: SATRip
Формат: AVI

Видео: 720x400 (1.80:1), 25 fps, XviD build 73 ~1650 kbps avg, 0.23 bit/pixel
Аудио: 48 kHz, MPEG Layer 3, 2 ch, ~192.00 kbps avg
скриншот  скриншот  скриншот  скриншот  скриншот  

General
Complete name : Downloads\Zhenskie.sekrety.S01.XviD.SATRip.25Kuzmich\Zhenskie.sekrety.e01.XviD.SATRip.25Kuzmich.avi
Format : AVI
Format/Info : Audio Video Interleave
File size : 669 MiB
Duration : 50mn 31s
Overall bit rate : 1 851 Kbps
Writing application : VirtualDubMod 1.5.10.3 | www.virtualdub-fr.org || (build 2550/release)
Writing library : VirtualDubMod build 2550/release
Video #0
ID : 0
Format : MPEG-4 Visual
Format profile : Advanced Simple@L5
Format settings, BVOP : 1
Format settings, QPel : No
Format settings, GMC : No warppoints
Format settings, Matrix : Default (MPEG)
Codec ID : XVID
Codec ID/Hint : XviD
Duration : 50mn 31s
Bit rate : 1 650 Kbps
Width : 720 pixels
Height : 400 pixels
Display aspect ratio : 16:9
Frame rate : 25.000 fps
Color space : YUV
Chroma subsampling : 4:2:0
Bit depth : 8 bits
Scan type : Progressive
Compression mode : Lossy
Bits/(Pixel*Frame) : 0.229
Stream size : 596 MiB (89%)
Writing library : XviD 73
Audio #1
ID : 1
Format : MPEG Audio
Format version : Version 1
Format profile : Layer 3
Mode : Joint stereo
Codec ID : 55
Codec ID/Hint : MP3
Duration : 50mn 31s
Bit rate mode : Constant
Bit rate : 192 Kbps
Channel(s) : 2 channels
Sampling rate : 48.0 KHz
Compression mode : Lossy
Stream size : 69.4 MiB (10%)
Alignment : Aligned on interleaves
Interleave, duration : 40 ms (1.00 video frame)
Interleave, preload duration : 504 ms
Writing library : LAME3.99r
Encoding settings : -m j -V 4 -q 2 -lowpass 18.6 -b 192

Внимание! Раздача ведётся путём добавления новых серий. При каждом добавлении создаётся новый торрент.
Чтобы начать докачку новой серии, пользователям необходимо сделать следующее:
1. Остановить скачивание.
2. Удалить старый торрент у себя из клиента (старые серии удалять не надо).
3. Скачать новый торрент и запустить его у себя в клиенте вместо старого, при этом указать клиенту путь в старую папку куда и должно происходить скачивание новых серий. Ваш клиент при этом должен произвести хеширование (проверку) старой папки и будет докачивать только те серии, которых у вас ещё нет. Старые серии при этом не удаляются, а продолжают раздаваться! Eсли вы уже удалили старые серии, то предотвратить повторную закачку старых серий можно, отжав галочку в соответствующих местах при запуске нового торрента.
pb.wtf



Скачать Женские секреты через торрент https://b.radikal.ru/b25/2002/e4/0c920da6ec85.jpg Скачать фильм Женские секреты через торрент бесплантно в хорошем качестве Описание: Жизнь Марты размеренна и благополучна. Она работает психологом в престижном колледже и мечтает выйти замуж за любимого человека. ... 9.4 10 5
Торрент: Зарегистрирован [2020-03-04 12:14] · скачан: 20 раз
Статус: √ проверено
Размер: 7.81 GB
Как cкачать? Как скачать Женские секреты через торрент | qTorrent

% Раздел Тема Автор DL S | L
Наши сериалы [ 15.61 GB ] Женские секреты / Жіночі секрети / Сезон: 1 / Серии: 1-12 из 12 [2020 Мело HDTVRip 720p] bober100 Скачать
1 | 0
Наши сериалы [ 9.27 GB ] Женские секреты / Жіночі секрети / Сезон: 1 / Серии: 1-12 из 12 [2020 Мело HDTVRip-AVC] bober100 Скачать
2 | 0
Наши сериалы [ 7.62 GB ] Женские секреты / Жіночі секрети / Сезон: 1 / Серии: 1-12 из 12 [2020 Мело HDTVRip] bober100 Скачать
1 | 0
Наши сериалы [ 32.33 GB ] Женские секреты / Жіночі секрети / Сезон: 1 / Серии: 1-12 из 12 [2020 Мело HDTV 1080i] bober100 Скачать
1 | 0

28-11-2019 20:33  

Отключить всю рекламу на сайте

    Дорогой пользователь! Огромная просьба, поблагодарите релизера, оцените раздачу и оставьте свои комментарий, если Вы скачали Женские секреты через торрент бесплатно! Внесите свою лепту в развитие PiratBit!
    Комментировать посты могут только пользователи прошедшие не сложную регистрацию
    Показать сообщения:    

    Женские секреты через торрент
    Скачать бесплатно Женские секреты
    Женские секреты скачать торрент
    Женские секреты смотреть онлайн
    Cкачать фильм Женские секреты бесплатно
    Женские секреты скачать торрент в хорошем качестве
    Женские секреты смотреть онлайн бесплатно в хорошем качестве


    Вы не можете начинать темы
    Вы не можете отвечать на сообщения
    Вы не можете редактировать свои сообщения
    Вы не можете удалять свои сообщения
    Вы не можете голосовать в опросах
    Вы не можете прикреплять файлы к сообщениям
    Вы можете скачивать файлы