1 сезон

1 сезон

iTunes

1

КиноПоиск HD

Кинопоиск HD

iTunes

13

1 сезон

RePack

30

Новинка

ВАЖНО

ИГРА 18+

pack

RePack

MK11
pack

Легкие деньги

RePack

jed

RePack

fifa19

RePack

RDR2

RePack

NEED FOR SPEED™ PAYBACK

4 сезон

9 сезон

Бесстыжие 9 сезон

Все сериалы

все сериалы на PB.wtf

RePack

FAR CRY 5
  
Magnet ссылка

Садист / Bully (Ларри Кларк) [2001, Триллер, криминал, WEB-DLRip-AVC] MVO [R5 / Premier Digital] pb.wtf

Садист через торрент pb.wtf

Размер: 3.11 GB | Добавлен: 1 год 1 мес. назад | Торрент скачан:29 раз
Скачать  

26-02-2020 07:44 Садист Скачать торрент  

Садист | Bully
Год выпуска: 2001
Страна: США, Франция, Великобритания
Жанр: Триллер, криминальная драма
Продолжительность: 01:52:35
Перевод: Профессиональный (многоголосый) | R5 от «Premier Digital»
Субтитры: Русские, английские

Режиссер: Ларри Кларк

rating

В ролях: Брэд Ренфро, Бижу Филлипс, Рэйчел Майнер, Ник Сталь, Майкл Питт, Лео Фицпатрик, Келли Гарнер, Дэниэл Франзиз, Натали Полдинг

Описание: Бобби и Марти дружат с самого детства. Только странная у них дружба: патологический садист Бобби зверски измывается над наивным увальнем Марти. И вот однажды «тюфяк» Марти решает раз и навсегда прекратить дикие издевательства и… убить Бобби!

Качество: WEB-DLRip-AVC
Формат: AVI

Видео: 1024x576 at 23.976 fps, x264, ~3500 kbps, 0.247 bpp
Аудио: AC3, 6 ch, ~448 kbps - | Русский | - R5 от «Premier Digital»
скриншот  скриншот  скриншот  скриншот  скриншот  

x264 info: frame I:937 Avg QP:16.46 size: 57905
x264 info: frame P:36625 Avg QP:18.00 size: 32118
x264 info: frame B:124401 Avg QP:19.53 size: 13348

General
Format : Matroska
Format version : Version 4
File size : 3.11 GiB
Duration : 1 h 52 min
Overall bit rate : 3 948 kb/s
Movie name : Садист.(2001).WEB-DLRip-AVC.[-=DoMiNo=-]
Attachments : poster / poster
Language : und

Video
ID : 1
Format : AVC
Format/Info : Advanced Video Codec
Format profile : High@L4.1
Format settings : CABAC / 12 Ref Frames
Format settings, CABAC : Yes
Format settings, Reference : 12 frames
Codec ID : V_MPEG4/ISO/AVC
Duration : 1 h 52 min
Bit rate : 3 500 kb/s
Width : 1 024 pixels
Height : 576 pixels
Display aspect ratio : 16:9
Frame rate mode : Constant
Frame rate : 23.976 (24000/1001) FPS
Color space : YUV
Chroma subsampling : 4:2:0
Bit depth : 8 bits
Scan type : Progressive
Bits/(Pixel*Frame) : 0.247
Stream size : 2.69 GiB (87%)
Title : RIP_BY_-=DoMiNo=-
Writing library : x264 core 157 r2958 57baac4
Encoding settings : cabac=1 / ref=12 / deblock=1:-1:-1 / analyse=0x3:0x133 / me=umh / subme=11 / psy=1 / psy_rd=1.00:0.15 / mixed_ref=1 / me_range=32 / chroma_me=1 / trellis=2 / 8x8dct=1 / cqm=0 / deadzone=21,11 / fast_pskip=0 / chroma_qp_offset=-3 / threads=6 / lookahead_threads=1 / sliced_threads=0 / nr=0 / decimate=0 / interlaced=0 / bluray_compat=0 / constrained_intra=0 / bframes=12 / b_pyramid=2 / b_adapt=2 / b_bias=0 / direct=3 / weightb=1 / open_gop=0 / weightp=2 / keyint=240 / keyint_min=24 / scenecut=40 / intra_refresh=0 / rc_lookahead=60 / rc=2pass / mbtree=0 / bitrate=3500 / ratetol=1.0 / qcomp=0.70 / qpmin=0 / qpmax=69 / qpstep=4 / cplxblur=20.0 / qblur=0.5 / vbv_maxrate=50000 / vbv_bufsize=62500 / nal_hrd=none / filler=0 / ip_ratio=1.40 / pb_ratio=1.30 / aq=1:1.00
Language : English
Default : Yes
Forced : No
Color range : Limited
Color primaries : BT.709
Transfer characteristics : BT.709
Matrix coefficients : BT.709

Audio
ID : 2
Format : AC-3
Format/Info : Audio Coding 3
Commercial name : Dolby Digital
Codec ID : A_AC3
Duration : 1 h 52 min
Bit rate mode : Constant
Bit rate : 448 kb/s
Channel(s) : 6 channels
Channel layout : L R C LFE Ls Rs
Sampling rate : 48.0 kHz
Frame rate : 31.250 FPS (1536 SPF)
Bit depth : 32 bits
Compression mode : Lossy
Stream size : 361 MiB (11%)
Title : MVO R5 «Premier Digital»
Language : Russian
Service kind : Complete Main
Default : Yes
Forced : No

Text #1
ID : 3
Format : UTF-8
Codec ID : S_TEXT/UTF8
Codec ID/Info : UTF-8 Plain Text
Language : Russian
Default : Yes
Forced : No

Text #2
ID : 4
Format : UTF-8
Codec ID : S_TEXT/UTF8
Codec ID/Info : UTF-8 Plain Text
Language : English
Default : No
Forced : No

Menu
00:00:00.000 : :Глава 1
00:09:54.344 : :Глава 2
00:21:27.495 : :Глава 3
00:33:14.117 : :Глава 4
00:45:29.018 : :Глава 5
00:55:36.875 : :Глава 6
01:05:45.483 : :Глава 7
01:14:37.223 : :Глава 8
01:25:34.379 : :Глава 9
01:36:42.463 : :Глава 10
01:45:24.485 : :Глава 11

pb.wtf



Скачать Садист через торрент https://i1.imageban.ru/out/2020/02/26/d49c7e41935497a42943e50a38754623.jpg Скачать фильм Садист через торрент бесплантно в хорошем качестве Описание: Бобби и Марти дружат с самого детства. Только странная у них дружба: патологический садист Бобби зверски измывается над наивным ... 10 10 3
Торрент: Зарегистрирован [2020-02-26 07:44] · скачан: 29 раз
Статус: √ проверено
Размер: 3.11 GB
Как cкачать? Как скачать Садист через торрент | UTorrent

% Раздел Тема Автор DL S | L
Фильмы (WEB-DL 720p, 1080p) [ 11.96 GB ] Садист / Bully [2001 WEB-DL 1080p] MVO [R5 / Premier Digital] +AVO [О.Котов] bober100 Скачать
1 | 0

28-11-2019 20:33  

Отключить всю рекламу на сайте

    Дорогой пользователь! Огромная просьба, поблагодарите релизера, оцените раздачу и оставьте свои комментарий, если Вы скачали Садист через торрент бесплатно! Внесите свою лепту в развитие PiratBit!
    Комментировать посты могут только пользователи прошедшие не сложную регистрацию
    Показать сообщения:    

    Садист через торрент
    Скачать бесплатно Садист
    Садист скачать торрент
    Садист смотреть онлайн
    Cкачать фильм Садист бесплатно
    Садист скачать торрент в хорошем качестве
    Садист смотреть онлайн бесплатно в хорошем качестве


    Вы не можете начинать темы
    Вы не можете отвечать на сообщения
    Вы не можете редактировать свои сообщения
    Вы не можете удалять свои сообщения
    Вы не можете голосовать в опросах
    Вы не можете прикреплять файлы к сообщениям
    Вы можете скачивать файлы