Ссылка на приватное зеркало нашего сайта всего за 1$. Внимание количество ограничено!!!

2 сезон

iTunes

1 сезон

1

2 сезон

2 сезон

iTunes

1 сезон

RePack

30

Ultimate

ВАЖНО

ИГРА 18+

pack

RePack

MK11
pack

Забери бонус

RePack

jed

!!Акция!!

Alien_Rage

RePack

fifa19

RePack

Assassins Creed: Odyssey

RePack

NEED FOR SPEED™ PAYBACK

4 сезон

9 сезон

Бесстыжие 9 сезон

Все сериалы

все сериалы на PB.wtf

RePack

FAR CRY 5
  

Садист / Bully (Ларри Кларк) [2001, Триллер, криминал, WEB-DL 1080p] MVO [R5 / Premier Digital] +AVO [О.Котов] pb.wtf

Садист через торрент pb.wtf

Размер: 11.96 GB | Добавлен: 9 мес. назад | Торрент скачан:36 раз
Скачать  

26-02-2020 07:44 Садист Скачать торрент  

Садист | Bully
Год выпуска: 2001
Страна: США, Франция, Великобритания
Жанр: Триллер, криминальная драма
Продолжительность: 01:52:35
Перевод:
Профессиональный (многоголосый) | R5 от «Premier Digital»
Авторский (одноголосый, закадровый) | Котов Вячеслав Олегович
Субтитры: Русские, английские

Режиссер: Ларри Кларк

rating

В ролях: Брэд Ренфро, Бижу Филлипс, Рэйчел Майнер, Ник Сталь, Майкл Питт, Лео Фицпатрик, Келли Гарнер, Дэниэл Франзиз, Натали Полдинг

Описание: Бобби и Марти дружат с самого детства. Только странная у них дружба: патологический садист Бобби зверски измывается над наивным увальнем Марти. И вот однажды «тюфяк» Марти решает раз и навсегда прекратить дикие издевательства и… убить Бобби!

Качество: WEB-DL 1080p
Формат: MKV

Видео: 1920x1080, 13600 kbps, 23,976 fps
Аудио#1: AC-3, 6 ch, 448 kbps (Rus) - MVO R5 «Premier Digital»
Аудио#2: AC-3, 2 ch, 192 kbps (Rus) - AVO Котов Вячеслав Олегович
Аудио#3: AC-3, 6 ch, 640 kbps (Eng)
скриншот  скриншот  скриншот  скриншот  скриншот  

Общее
Уникальный идентификатор : 177302452769544239166862333142537880166 (0x856335D63C29DCA6BD927506093C4266)
Полное имя : Садист (Bully) 2001 WEBRip 1080p.mkv
Формат : Matroska
Версия формата : Version 2
Размер файла : 12,0 Гбайт
Продолжительность : 1 ч. 52 м.
Режим общего битрейта : Переменный
Общий поток : 15,2 Мбит/сек
Дата кодирования : UTC 2020-02-25 07:53:48
Программа кодирования : mkvmerge v4.0.0 ('The Stars were mine') сборка от Jun 6 2010 16:18:42
Библиотека кодирования : libebml v1.0.0 + libmatroska v1.0.0

Видео
Идентификатор : 1
Формат : AVC
Формат/Информация : Advanced Video Codec
Профиль формата : High@L4
Параметр CABAC формата : Да
Параметр ReFrames формата : 4 кадра
Идентификатор кодека : V_MPEG4/ISO/AVC
Продолжительность : 1 ч. 52 м.
Вид битрейта : Переменный
Битрейт : 13,6 Мбит/сек
Максимальный битрейт : 15,0 Мбит/сек
Ширина : 1920 пикселей
Высота : 1080 пикселей
Соотношение сторон : 16:9
Режим частоты кадров : Постоянный
Частота кадров : 23,976 (24000/1001) кадра/сек
Цветовое пространство : YUV
Субдискретизация насыщенности : 4:2:0
Битовая глубина : 8 бит
Тип развёртки : Прогрессивная
Бит/(Пиксели*Кадры) : 0.274
Размер потока : 10,7 Гбайт (90%)
Язык : English
Default : Нет
Forced : Нет
Цветовой диапазон : Limited
Основные цвета : BT.709
Характеристики трансфера : BT.709
Коэффициенты матрицы : BT.709

Аудио #1
Идентификатор : 2
Формат : AC-3
Формат/Информация : Audio Coding 3
Расширение режима : CM (complete main)
Параметр Endianness формата : Big
Идентификатор кодека : A_AC3
Продолжительность : 1 ч. 52 м.
Вид битрейта : Постоянный
Битрейт : 448 Кбит/сек
Каналы : 6 каналов
Расположение каналов : Front: L C R, Side: L R, LFE
Частота : 48,0 КГц
Частота кадров : 31,250 кадров/сек (1536 spf)
Метод сжатия : С потерями
Размер потока : 361 Мбайт (3%)
Заголовок : MVO R5 «Premier Digital»
Язык : Russian
Default : Нет
Forced : Нет

Аудио #2
Идентификатор : 3
Формат : AC-3
Формат/Информация : Audio Coding 3
Расширение режима : CM (complete main)
Параметр Endianness формата : Big
Идентификатор кодека : A_AC3
Продолжительность : 1 ч. 52 м.
Вид битрейта : Постоянный
Битрейт : 192 Кбит/сек
Каналы : 2 канала
Расположение каналов : Front: L R
Частота : 48,0 КГц
Частота кадров : 31,250 кадров/сек (1536 spf)
Метод сжатия : С потерями
Размер потока : 155 Мбайт (1%)
Заголовок : AVO Котов Вячеслав Олегович (mupoxa)
Язык : Russian
Default : Нет
Forced : Нет

Аудио #3
Идентификатор : 4
Формат : AC-3
Формат/Информация : Audio Coding 3
Расширение режима : CM (complete main)
Параметр Endianness формата : Big
Идентификатор кодека : A_AC3
Продолжительность : 1 ч. 52 м.
Вид битрейта : Постоянный
Битрейт : 640 Кбит/сек
Каналы : 6 каналов
Расположение каналов : Front: L C R, Side: L R, LFE
Частота : 48,0 КГц
Частота кадров : 31,250 кадров/сек (1536 spf)
Метод сжатия : С потерями
Размер потока : 515 Мбайт (4%)
Язык : English
Default : Нет
Forced : Нет

Текст #1
Идентификатор : 5
Формат : UTF-8
Идентификатор кодека : S_TEXT/UTF8
Идентификатор кодека/Информация : UTF-8 Plain Text
Язык : Russian
Default : Нет
Forced : Нет

Текст #2
Идентификатор : 6
Формат : UTF-8
Идентификатор кодека : S_TEXT/UTF8
Идентификатор кодека/Информация : UTF-8 Plain Text
Язык : English
Default : Нет
Forced : Нет

pb.wtf



Скачать Садист через торрент https://i1.imageban.ru/out/2020/02/26/d49c7e41935497a42943e50a38754623.jpg Скачать фильм Садист через торрент бесплантно в хорошем качестве Описание: Бобби и Марти дружат с самого детства. Только странная у них дружба: патологический садист Бобби зверски измывается над наивным ... 10 10 4
Info! Золотая раздача, скачанное не засчитывается.
Торрент: Зарегистрирован [2020-02-26 07:44] · скачан: 36 раз
Статус: √ проверено
Размер: 11.96 GB
Как cкачать? Как скачать Садист через торрент | qTorrent

% Раздел Тема Автор DL S | L
Фильмы 2001-2005 [ 3.11 GB ] Садист / Bully [2001 WEB-DLRip-AVC] MVO [R5 / Premier Digital] bober100 Скачать
1 | 0

28-11-2019 20:33  

Отключить всю рекламу на сайте

    Дорогой пользователь! Огромная просьба, поблагодарите релизера, оцените раздачу и оставьте свои комментарий, если Вы скачали Садист через торрент бесплатно! Внесите свою лепту в развитие PiratBit!
    Комментировать посты могут только пользователи прошедшие не сложную регистрацию
    Показать сообщения:    

    Садист через торрент
    Скачать бесплатно Садист
    Садист скачать торрент
    Садист смотреть онлайн
    Cкачать фильм Садист бесплатно
    Садист скачать торрент в хорошем качестве
    Садист смотреть онлайн бесплатно в хорошем качестве


    Вы не можете начинать темы
    Вы не можете отвечать на сообщения
    Вы не можете редактировать свои сообщения
    Вы не можете удалять свои сообщения
    Вы не можете голосовать в опросах
    Вы не можете прикреплять файлы к сообщениям
    Вы можете скачивать файлы