Ссылка на приватное зеркало нашего сайта всего за 1$. Внимание количество ограничено!!!

2 сезон

iTunes

1 сезон

1

2 сезон

2 сезон

iTunes

1 сезон

RePack

30

Ultimate

ВАЖНО

ИГРА 18+

pack

RePack

MK11
pack

Забери бонус

RePack

jed

!!Акция!!

Alien_Rage

RePack

fifa19

RePack

Assassins Creed: Odyssey

RePack

NEED FOR SPEED™ PAYBACK

4 сезон

9 сезон

Бесстыжие 9 сезон

Все сериалы

все сериалы на PB.wtf

RePack

FAR CRY 5
  

Шахматист / Fahim (Пьер-Франсуа Мартен-Лаваль) [2019, драма, комедия, биография, WEB-DL 1080p] DUB [iTunes] pb.wtf

Шахматист через торрент pb.wtf

Размер: 3.96 GB | Добавлен: 9 мес. назад | Торрент скачан:184 раза
Скачать  

26-02-2020 17:51 Шахматист Скачать торрент  

Шахматист | Fahim
Год выпуска: 2019
Страна: Франция
Студия: Waiting For Cinema, Wild Bunch, Alicéléo
Жанр: драма, комедия, биография
Продолжительность: 01:47:20
Перевод: Дублированный | iTunes
Субтитры: отсутствуют

Режиссер: Пьер-Франсуа Мартен-Лаваль

rating

В ролях: Изабель Нанти, Жерар Депардьё, Ассад Ахмед, Мизанур Рахаман, Сара Туффик Отман-Шмитт, Виктор Эрру, Тьяго Туби, Александр Нод, Пьер Гомме, Аксель Керавец

Описание: Юный шахматный гений Фахим вместе с отцом вынужденно покидает родной Бангладеш и находит убежище в Париже. Здесь мальчик знакомится с ворчуном Сильвианом, одним из лучших гроссмейстеров Франции. Неприязнь между ними перерастет в дружбу, которая подарит им новый смысл жизни и приведет как к досадным поражениям, так и к головокружительным победам.

Качество: WEB-DL 1080p
Формат: MKV

Видео: H264, 1916x800 (2.40:1), 24.000 fps, ~4518 Kbit/s, ~0.123 bit/pixel
Аудио#1 Russian: 48 kHz, AC3 Dolby Digital, 3/2 (L,C,R,l,r) + LFE ch, ~384 kbps
Аудио#2 French: 48 kHz, AC3 Dolby Digital, 3/2 (L,C,R,l,r) + LFE ch, ~384 kbps
скриншот  скриншот  скриншот  скриншот  

General
Unique ID : 242369793511792223390626232013955851627 (0xB656B96B53BB1FB99D1511A84288E56B)
Complete name : Shahmatist.2019.WEB-DL.1080p.ELEKTRI4KA.UNIONGANG.mkv
Format : Matroska
Format version : Version 4 / Version 2
File size : 3.96 GiB
Duration : 1 h 47 min
Overall bit rate : 5 285 kb/s
Movie name : ELEKTRI4KA.UNIONGANG
Encoded date : UTC 2020-02-26 12:43:03
Writing application : mkvmerge v8.3.0 ('Over the Horizon') 64bit
Writing library : libebml v1.3.1 + libmatroska v1.4.2

Video
ID : 1
Format : AVC
Format/Info : Advanced Video Codec
Format profile : High@L4
Format settings, CABAC : Yes
Format settings, ReFrames : 5 frames
Codec ID : V_MPEG4/ISO/AVC
Duration : 1 h 47 min
Bit rate : 4 518 kb/s
Width : 1 916 pixels
Height : 800 pixels
Display aspect ratio : 2.40:1
Frame rate mode : Constant
Frame rate : 24.000 FPS
Color space : YUV
Chroma subsampling : 4:2:0
Bit depth : 8 bits
Scan type : Progressive
Bits/(Pixel*Frame) : 0.123
Stream size : 3.39 GiB (85%)
Language : French
Default : Yes
Forced : No
Color range : Limited
Color primaries : BT.709
Transfer characteristics : BT.709
Matrix coefficients : BT.709

Audio #1
ID : 2
Format : AC-3
Format/Info : Audio Coding 3
Mode extension : CM (complete main)
Format settings, Endianness : Big
Codec ID : A_AC3
Duration : 1 h 47 min
Bit rate mode : Constant
Bit rate : 384 kb/s
Channel(s) : 6 channels
Channel positions : Front: L C R, Side: L R, LFE
Sampling rate : 48.0 kHz
Frame rate : 31.250 FPS (1536 spf)
Bit depth : 16 bits
Compression mode : Lossy
Delay relative to video : -42 ms
Stream size : 295 MiB (7%)
Title : iTunes
Language : Russian
Default : Yes
Forced : No

Audio #2
ID : 3
Format : AC-3
Format/Info : Audio Coding 3
Mode extension : CM (complete main)
Format settings, Endianness : Big
Codec ID : A_AC3
Duration : 1 h 47 min
Bit rate mode : Constant
Bit rate : 384 kb/s
Channel(s) : 6 channels
Channel positions : Front: L C R, Side: L R, LFE
Sampling rate : 48.0 kHz
Frame rate : 31.250 FPS (1536 spf)
Bit depth : 16 bits
Compression mode : Lossy
Delay relative to video : -42 ms
Stream size : 295 MiB (7%)
Language : French
Default : No
Forced : No

Menu
00:00:00.000 : en:Chapitre 01
00:09:06.000 : en:Chapitre 02
00:19:03.000 : en:Chapitre 03
00:29:01.000 : en:Chapitre 04
00:38:57.000 : en:Chapitre 05
00:49:29.000 : en:Chapitre 06
00:58:42.000 : en:Chapitre 07
01:11:04.000 : en:Chapitre 08
01:21:49.000 : en:Chapitre 09
01:30:03.000 : en:Chapitre 10
01:40:55.000 : en:Chapitre 11

pb.wtf



Скачать Шахматист через торрент https://c.radikal.ru/c43/2002/3e/619378f826cf.png Скачать фильм Шахматист через торрент бесплантно в хорошем качестве Описание: Юный шахматный гений Фахим вместе с отцом вынужденно покидает родной Бангладеш и находит убежище в Париже. Здесь мальчик ... 10 10 6
Торрент: Зарегистрирован [2020-02-26 17:51] · скачан: 184 раз
Статус: √ проверено
Размер: 3.96 GB
Как cкачать? Как скачать Шахматист через торрент | qTorrent

% Раздел Тема Автор DL S | L
Фильмы [HD 720p, 1080p] (Хороший звук DUB, MVO) [ 3.85 GB ] Шахматист / Fahim [2019 биография BDRip 720p] bober100 Скачать
1 | 0
Фильмы [HD 720p, 1080p] (Хороший звук DUB, MVO) [ 8.3 GB ] Шахматист / Fahim [2019 биография BDRip 1080p] bober100 Скачать
3 | 1
Фильмы (Blu-ray, BD-Remux, HDDVD) [ 17.49 GB ] Шахматист / Fahim [2019 биография BD Remux 1080p] bober100 Скачать
1 | 0
Фильмы 2019-2020 [DVDrip, WEB-DLRip, HDrip] (DUB, MVO) [ 1.41 GB ] Шахматист / Fahim [2019 биография BDRip] bober100 Скачать
2 | 0

28-11-2019 20:33  

Отключить всю рекламу на сайте

    Дорогой пользователь! Огромная просьба, поблагодарите релизера, оцените раздачу и оставьте свои комментарий, если Вы скачали Шахматист через торрент бесплатно! Внесите свою лепту в развитие PiratBit!
    Комментировать посты могут только пользователи прошедшие не сложную регистрацию
    Показать сообщения:    

    Шахматист через торрент
    Скачать бесплатно Шахматист
    Шахматист скачать торрент
    Шахматист смотреть онлайн
    Cкачать фильм Шахматист бесплатно
    Шахматист скачать торрент в хорошем качестве
    Шахматист смотреть онлайн бесплатно в хорошем качестве


    Вы не можете начинать темы
    Вы не можете отвечать на сообщения
    Вы не можете редактировать свои сообщения
    Вы не можете удалять свои сообщения
    Вы не можете голосовать в опросах
    Вы не можете прикреплять файлы к сообщениям
    Вы можете скачивать файлы