Ссылка на приватное зеркало всего за 1$. Внимание количество ограничено!!!

iTunes

iTunes

iTunes

1

iTunes

iTunes

iTunes

WEBRip

iTunes

30
pack

$ от Little Big

ВАЖНО

!!Акция!!

Alien_RageХит недели

RePack

Resident Evil 21

ИГРА 18+

pack

RePack

jed

!!Акция!!

Alien_Rage

RePack

fifa19

RePack

Assassins Creed: Odyssey

RePack

NEED FOR SPEED™ PAYBACK

4 сезон

9 сезон

Бесстыжие 9 сезон

Все сериалы

все сериалы на PB.wtf

RePack

FAR CRY 5
  

Герой (Карен Оганесян) [2019, Триллер, комедия, боевик, криминал, BDRip-AVC] [Лицензия] - ExKinoRay pb.wtf

Герой через торрент pb.wtf

Раздают: 12 [ 1 KB/s ]
Размер: 1.45 GB | Добавлен: 5 мес. 8 д. назад | Торрент скачан:139 раз
Скачать  

27-02-2020 07:02 Герой Скачать торрент  

Название: Герой
Год выхода: 2019
Жанр: Триллер, комедия, боевик, криминал
Режиссер: Карен Оганесян
В ролях: Александр Петров, Владимир Машков, Светлана Ходченкова, Ян Алабушев, Константин Лавроненко, Марина Петренко, Анастасия Тодореску, Тобиас Аспелин

Описание: 15 лет назад Андрей под руководством своего отца, полковника Родина, прошел обучение в секретной спецшколе, где из подростков готовили агентов Службы внешней разведки. Когда экспериментальный проект закрыли, Андрей «сжёг мосты», остался в Европе и старался не вспоминать о прошлом. Но однажды ему звонит отец, которого все считали погибшим. Тот сообщает, что на Андрея открыта охота, но кто решил его уничтожить — неизвестно. Спасаясь бегством, он находит Машу, с которой учился в спецшколе. Андрею предстоит пройти через любовь и предательство и узнать об истинных масштабах беспощадной шпионской игры, в которую он оказался втянут поневоле.

rating

Страна: Россия
Студия: Телеканал «РОССИЯ 1», Карго Фильм
Продолжительность: 02:00:45
Перевод: Не требуется | Лицензия Blu-ray GER
Субтитры: Русские на иностранную речь

Формат: MKV
Качество: BDRip-AVC
Видео: MPEG-4 AVC, 720x300 (2.40:1), 23.976 fps, 1269 Kbps, 0.259 bit/pixel
Аудио : 48 kHz, AC3, 5.1, 448 Kbps | Blu-Ray | RUS |
General
Unique ID : 224067129499263554294426684254880272639 (0xA891C269B687676EAF002718957C10FF)
Complete name : F:Geroy.2019.BDRip.AVC.ExKinoRay.mkv
Format : Matroska
Format version : Version 2
File size : 1.45 GiB
Duration : 2 h 0 min
Overall bit rate : 1 716 kb/s
Movie name : Герой (2019) from ExKinoRay
Encoded date : UTC 2020-02-27 06:32:51
Writing application : mkvmerge v5.6.0 ('Kenya Kane') built on May 27 2012 16:44:04
Writing library : libebml v1.2.3 + libmatroska v1.3.0
Attachments : front.jpg

Video
ID : 1
Format : AVC
Format/Info : Advanced Video Codec
Format profile : High@L4.1
Format settings, CABAC : Yes
Format settings, ReFrames : 11 frames
Codec ID : V_MPEG4/ISO/AVC
Duration : 2 h 0 min
Bit rate : 1 269 kb/s
Width : 720 pixels
Height : 300 pixels
Display aspect ratio : 2.40:1
Frame rate mode : Constant
Frame rate : 23.976 (24000/1001) FPS
Color space : YUV
Chroma subsampling : 4:2:0
Bit depth : 8 bits
Scan type : Progressive
Bits/(Pixel*Frame) : 0.245
Stream size : 1.04 GiB (72%)
Title : Enigma
Writing library : x264 core 152 r2851 ba24899
Encoding settings : cabac=1 / ref=11 / deblock=1:-2:-2 / analyse=0x3:0x113 / me=umh / subme=10 / psy=1 / psy_rd=1.04:0.06 / mixed_ref=1 / me_range=32 / chroma_me=1 / trellis=2 / 8x8dct=1 / cqm=0 / deadzone=21,11 / fast_pskip=0 / chroma_qp_offset=-3 / threads=9 / lookahead_threads=2 / sliced_threads=0 / nr=0 / decimate=0 / interlaced=0 / bluray_compat=0 / constrained_intra=0 / bframes=10 / b_pyramid=2 / b_adapt=2 / b_bias=0 / direct=3 / weightb=1 / open_gop=0 / weightp=2 / keyint=240 / keyint_min=23 / scenecut=40 / intra_refresh=0 / rc=2pass / mbtree=0 / bitrate=1269 / ratetol=1.0 / qcomp=0.60 / qpmin=0 / qpmax=51 / qpstep=4 / cplxblur=20.0 / qblur=0.5 / ip_ratio=1.40 / pb_ratio=1.30 / aq=1:1.00
Default : Yes
Forced : No
Color range : Limited
Color primaries : BT.709
Transfer characteristics : BT.709
Matrix coefficients : BT.709

Audio
ID : 2
Format : AC-3
Format/Info : Audio Coding 3
Mode extension : CM (complete main)
Format settings, Endianness : Big
Codec ID : A_AC3
Duration : 2 h 0 min
Bit rate mode : Constant
Bit rate : 448 kb/s
Channel(s) : 6 channels
Channel positions : Front: L C R, Side: L R, LFE
Sampling rate : 48.0 kHz
Frame rate : 31.250 FPS (1536 spf)
Compression mode : Lossy
Stream size : 387 MiB (26%)
Title : Blu-Ray
Language : Russian
Default : Yes
Forced : No

Text
ID : 3
Format : UTF-8
Codec ID : S_TEXT/UTF8
Codec ID/Info : UTF-8 Plain Text
Title : Forced
Language : Russian
Default : Yes
Forced : No

Menu
00:00:00.000 : :Chapter 01
00:09:36.742 : :Chapter 02
00:19:43.682 : :Chapter 03
00:32:55.848 : :Chapter 04
00:44:50.270 : :Chapter 05
00:55:24.404 : :Chapter 06
01:03:05.031 : :Chapter 07
01:11:12.268 : :Chapter 08
01:21:25.839 : :Chapter 09
01:30:52.321 : :Chapter 10
01:41:47.518 : :Chapter 11
01:53:30.094 : :Chapter 12
02:00:44.528 : :Chapter 13


Релиз от:

Автор релиза: pb.wtf



Скачать Герой через торрент https://i87.fastpic.ru/big/2019/1028/c5/557bd152c5bdefef50d4f5c3aef03bc5.jpg Скачать фильм Герой через торрент бесплантно в хорошем качестве Описание: 15 лет назад Андрей под руководством своего отца, полковника Родина, прошел обучение в секретной спецшколе, где из подростков ... 8.2 10 6
Info! Золотая раздача, скачанное не засчитывается.
Торрент: Зарегистрирован [2020-02-27 07:02] · скачан: 139 раз
Статус: √ проверено
Размер: 1.45 GB
Как cкачать? Как скачать Герой через торрент | qTorrent

% Раздел Тема Автор DL S | L
Иностранные мультфильмы [ 1.82 GB ] Сержант Стабби: Американский герой / Sgt. Stubby: An American Hero [2018 Мультфильм военный история BDRip-AVC] MVO [HDrezka Studio] - ExKinoRay Mr. Grab Скачать
2 | 0
Наши новые фильмы 2018-2019 [ 1.45 GB ] Герой [2019 WEB-DLRip-AVC] - ExKinoRay Enigma2010 Скачать
4 | 0
Наши фильмы (HD, WEB-DL 720p, 1080p) [ 4.81 GB ] Герой [2016 военный BDRip 1080p] [] - ExKinoRay Enigma2010 Скачать
1 | 0
Иностранные мультфильмы [ 1.71 GB ] СПАРК. Герой Вселенной / Spark: A Space Tail [2016 мультфильм BDRip-AVC ] - ExKinoRay Enigma2010 Скачать
2 | 0

28-11-2019 20:33  

Отключить всю рекламу на сайте

27-02-2020 18:46 Герой Скачать торрент  

Ооо... Оганесян и Петров pb.wtf



    Дорогой пользователь! Огромная просьба, поблагодарите релизера, оцените раздачу и оставьте свои комментарий, если Вы скачали Герой через торрент бесплатно! Внесите свою лепту в развитие PiratBit!
    Комментировать посты могут только пользователи прошедшие не сложную регистрацию
    Показать сообщения:    

    Герой через торрент
    Скачать бесплатно Герой
    Герой скачать торрент
    Герой смотреть онлайн
    Cкачать фильм Герой бесплатно
    Герой скачать торрент в хорошем качестве
    Герой смотреть онлайн бесплатно в хорошем качестве


    Вы не можете начинать темы
    Вы не можете отвечать на сообщения
    Вы не можете редактировать свои сообщения
    Вы не можете удалять свои сообщения
    Вы не можете голосовать в опросах
    Вы не можете прикреплять файлы к сообщениям
    Вы можете скачивать файлы