1 сезон

1 сезон

iTunes

1

КиноПоиск HD

Кинопоиск HD

iTunes

13

1 сезон

RePack

30

Ultimate

ВАЖНО

ИГРА 18+

pack

RePack

MK11
pack

Легкие деньги

RePack

jed

RePack

fifa19

RePack

RDR2

RePack

NEED FOR SPEED™ PAYBACK

4 сезон

9 сезон

Бесстыжие 9 сезон

Все сериалы

все сериалы на PB.wtf

RePack

FAR CRY 5
  
Magnet ссылка

Ходячие мертвецы / The Walking Dead / Сезон: 10 / Серии: 1-22 из 22 (Грег Никотеро, Эрнест Р. Дикерсон, Майкл Е. Сатраземис) [2019 - 2021, США, ужасы, триллер, драма, WEB-DLRip] MVO [LostFilm] pb.wtf

Ходячие мертвецы через торрент pb.wtf

Раздают: 7 [ 199 KB/s ] Качают: 11 [ 3 KB/s ]
Размер: 14.35 GB | Добавлен: 5 д. назад | Торрент скачан:27 раз
Скачать  

27-02-2020 15:58 Ходячие мертвецы Скачать торрент  


Ходячие мертвецы / The Walking Dead
Год выпуска: 2019 - 2021
Страна: США
Жанр: ужасы, триллер, драма
Продолжительность: ~00:51:00
Перевод: Профессиональный (многоголосый закадровый)
Субтитры: Русские, Английские
Режиссер: Грег Никотеро, Майкл Е. Сатраземис, Эрнест Р. Дикерсон


В ролях: Эндрю Линкольн, Скотт Уилсон, Данай Джекесай Гурира, Дэвид Моррисси, Стивен Юн, Лорен Коэн, Чендлер Риггз, Норман Ридус, Мелисса Сюзанн МакБрайд, Эмили Кинни, Чад Коулмэн, Сонеква Мартин и др.
Описание: Спустя несколько месяцев после резни во время ярмарки сообщества, проведённой Альфой (Саманта Мортон), обстоятельства сосредотачиваются на объединённых сообществах, поскольку они начинают борьбу, чтобы положить конец угрозе Шептунов.
Качество: WEB-DLRip
Формат: AVI
Видео кодек: XviD
Аудио кодек: MP3
Видео: 720x400 (16:9), 23.976 fps, XviD, 1903 Kbps
Аудио: MP3, 48.0 KHz, 2 ch, 192 kbps [Rus]

01. Границы, которые мы пересекли / Lines We Cross
02. Мы — конец света / We Are the End of the World
03. Призраки / Ghosts
04. Заткните Шепчущих / Silence the Whisperers
05. Как и всегда / What It Always Is
06. Связи / Bonds
07. Открой глаза / Open Your Eyes
08. Прежний мир / The World Before
09. Тиски / Squeeze
10. Преследователь / Stalker
11. Утренняя звезда / Morning Star
12. Ходи с нами / Walk with Us
13. Кем мы стали / What We Become
14. Смотри на цветы / Look at the Flowers
15. Башня / The Tower
16. Верная гибель / A Certain Doom
17. Дом, милый дом / Home Sweet Home
18. Найди меня / Find Me
19. Еще одно / One More
20. Заноза / Splinter
21. Развилка / Diverged
22. А вот и Ниган / Here's Negan

скриншот   скриншот   скриншот   скриншот  

Общее
Полное имя : G:\Торрент\The.Walking.Dead.S10.WEB-DL.LostFilm\The.Walking.Dead.S10E01.rus.LostFilm.TV.avi
Формат : AVI
Формат/Информация : Audio Video Interleave
Размер файла : 778 Мбайт
Продолжительность : 51 м. 42 с.
Режим общего битрейта : Переменный
Общий поток : 2103 Кбит/сек
Программа кодирования : Nandub v1.0rc2
Библиотека кодирования : Nandub build 1853/release

Видео
Идентификатор : 0
Формат : MPEG-4 Visual
Профиль формата : Advanced Simple@L5
Настройки формата : BVOP2
Параметр BVOP формата : 2
Параметр QPel формата : Нет
Параметр GMC формата : Без точки перехода
Параметр матрицы формата : Default (MPEG)
Идентификатор кодека : XVID
Идентификатор кодека/Подсказка : XviD
Продолжительность : 51 м. 42 с.
Битрейт : 1903 Кбит/сек
Ширина : 720 пикселей
Высота : 400 пикселей
Соотношение сторон : 16:9
Частота кадров : 23,976 (24000/1001) кадра/сек
Цветовое пространство : YUV
Субдискретизация насыщенности : 4:2:0
Битовая глубина : 8 бит
Тип развёртки : Прогрессивная
Метод сжатия : С потерями
Бит/(Пиксели*Кадры) : 0.276
Размер потока : 704 Мбайт (91%)
Библиотека кодирования : XviD 1.2.1 (UTC 2008-12-04)

Аудио
Идентификатор : 1
Формат : MPEG Audio
Версия формата : Version 1
Профиль формата : Layer 3
Настройки формата : Joint stereo
Идентификатор кодека : 55
Идентификатор кодека/Подсказка : MP3
Продолжительность : 51 м. 41 с.
Вид битрейта : Переменный
Битрейт : 192 Кбит/сек
Каналы : 2 канала
Частота : 48,0 КГц
Частота кадров : 41,667 кадра/сек (1152 SPF)
Метод сжатия : С потерями
Размер потока : 69,2 Мбайт (9%)
Выравнивание : Соединение по промежуткам
Продолжительность промежутка : 24 мс. (0,58 видеокадр)
Время предзагрузки промежутка : 513 мс.
Библиотека кодирования : LAME3.97b
Настройки программы : -m j -V 4 -q 3 -lowpass 18.6 --abr 192

Общее
Полное имя : G:\Торрент\The.Walking.Dead.S10.WEB-DL.LostFilm\The.Walking.Dead.S10E02.rus.LostFilm.TV.avi
Формат : AVI
Формат/Информация : Audio Video Interleave
Размер файла : 664 Мбайт
Продолжительность : 44 м. 1 с.
Режим общего битрейта : Переменный
Общий поток : 2109 Кбит/сек
Программа кодирования : Nandub v1.0rc2
Библиотека кодирования : Nandub build 1853/release

Видео
Идентификатор : 0
Формат : MPEG-4 Visual
Профиль формата : Advanced Simple@L5
Параметр BVOP формата : Нет
Параметр QPel формата : Нет
Параметр GMC формата : Без точки перехода
Параметр матрицы формата : Default (MPEG)
Идентификатор кодека : XVID
Идентификатор кодека/Подсказка : XviD
Продолжительность : 44 м. 1 с.
Битрейт : 1911 Кбит/сек
Ширина : 720 пикселей
Высота : 400 пикселей
Соотношение сторон : 16:9
Частота кадров : 23,976 (24000/1001) кадра/сек
Частота кадров в оригинале : 23,976 (23976/1000) кадра/сек
Цветовое пространство : YUV
Субдискретизация насыщенности : 4:2:0
Битовая глубина : 8 бит
Тип развёртки : Прогрессивная
Метод сжатия : С потерями
Бит/(Пиксели*Кадры) : 0.277
Размер потока : 602 Мбайт (91%)
Библиотека кодирования : XviD 1.2.1 (UTC 2008-12-04)

Аудио
Идентификатор : 1
Формат : MPEG Audio
Версия формата : Version 1
Профиль формата : Layer 3
Настройки формата : Joint stereo / MS Stereo
Идентификатор кодека : 55
Идентификатор кодека/Подсказка : MP3
Продолжительность : 44 м. 1 с.
Вид битрейта : Переменный
Битрейт : 192 Кбит/сек
Каналы : 2 канала
Частота : 48,0 КГц
Частота кадров : 41,667 кадра/сек (1152 SPF)
Метод сжатия : С потерями
Размер потока : 58,4 Мбайт (9%)
Выравнивание : Соединение по промежуткам
Продолжительность промежутка : 24 мс. (0,58 видеокадр)
Время предзагрузки промежутка : 513 мс.
Библиотека кодирования : LAME3.97b
Настройки программы : -m j -V 4 -q 3 -lowpass 18.6 --abr 192

Общее
Полное имя : G:\Торрент\The.Walking.Dead.S10.WEB-DL.LostFilm\The.Walking.Dead.S10E03.rus.LostFilm.TV.avi
Формат : AVI
Формат/Информация : Audio Video Interleave
Размер файла : 572 Мбайт
Продолжительность : 47 м. 11 с.
Режим общего битрейта : Переменный
Общий поток : 1694 Кбит/сек
Программа кодирования : Nandub v1.0rc2
Библиотека кодирования : Nandub build 1853/release

Видео
Идентификатор : 0
Формат : MPEG-4 Visual
Профиль формата : Advanced Simple@L5
Параметр BVOP формата : Нет
Параметр QPel формата : Нет
Параметр GMC формата : Без точки перехода
Параметр матрицы формата : Default (MPEG)
Идентификатор кодека : XVID
Идентификатор кодека/Подсказка : XviD
Продолжительность : 47 м. 11 с.
Битрейт : 1496 Кбит/сек
Ширина : 720 пикселей
Высота : 400 пикселей
Соотношение сторон : 16:9
Частота кадров : 23,976 (24000/1001) кадра/сек
Частота кадров в оригинале : 23,976 (23976/1000) кадра/сек
Цветовое пространство : YUV
Субдискретизация насыщенности : 4:2:0
Битовая глубина : 8 бит
Тип развёртки : Прогрессивная
Метод сжатия : С потерями
Бит/(Пиксели*Кадры) : 0.217
Размер потока : 505 Мбайт (88%)
Библиотека кодирования : XviD 1.2.1 (UTC 2008-12-04)

Аудио
Идентификатор : 1
Формат : MPEG Audio
Версия формата : Version 1
Профиль формата : Layer 3
Настройки формата : Joint stereo
Идентификатор кодека : 55
Идентификатор кодека/Подсказка : MP3
Продолжительность : 47 м. 10 с.
Вид битрейта : Переменный
Битрейт : 192 Кбит/сек
Каналы : 2 канала
Частота : 48,0 КГц
Частота кадров : 41,667 кадра/сек (1152 SPF)
Метод сжатия : С потерями
Размер потока : 62,8 Мбайт (11%)
Выравнивание : Соединение по промежуткам
Продолжительность промежутка : 24 мс. (0,58 видеокадр)
Время предзагрузки промежутка : 507 мс.
Библиотека кодирования : LAME3.97b
Настройки программы : -m j -V 4 -q 3 -lowpass 18.6 --abr 192

Общее
Полное имя : G:\Торрент\The.Walking.Dead.S10.WEB-DL.LostFilm\The.Walking.Dead.S10E04.rus.LostFilm.TV.avi
Формат : AVI
Формат/Информация : Audio Video Interleave
Размер файла : 626 Мбайт
Продолжительность : 44 м. 11 с.
Режим общего битрейта : Переменный
Общий поток : 1982 Кбит/сек
Программа кодирования : Nandub v1.0rc2
Библиотека кодирования : Nandub build 1853/release

Видео
Идентификатор : 0
Формат : MPEG-4 Visual
Профиль формата : Advanced Simple@L5
Параметр BVOP формата : Нет
Параметр QPel формата : Нет
Параметр GMC формата : Без точки перехода
Параметр матрицы формата : Default (MPEG)
Идентификатор кодека : XVID
Идентификатор кодека/Подсказка : XviD
Продолжительность : 44 м. 11 с.
Битрейт : 1784 Кбит/сек
Ширина : 720 пикселей
Высота : 400 пикселей
Соотношение сторон : 16:9
Частота кадров : 23,976 (24000/1001) кадра/сек
Частота кадров в оригинале : 23,976 (23976/1000) кадра/сек
Цветовое пространство : YUV
Субдискретизация насыщенности : 4:2:0
Битовая глубина : 8 бит
Тип развёртки : Прогрессивная
Метод сжатия : С потерями
Бит/(Пиксели*Кадры) : 0.258
Размер потока : 564 Мбайт (90%)
Библиотека кодирования : XviD 1.2.1 (UTC 2008-12-04)

Аудио
Идентификатор : 1
Формат : MPEG Audio
Версия формата : Version 1
Профиль формата : Layer 3
Настройки формата : Joint stereo
Идентификатор кодека : 55
Идентификатор кодека/Подсказка : MP3
Продолжительность : 44 м. 10 с.
Вид битрейта : Переменный
Битрейт : 192 Кбит/сек
Каналы : 2 канала
Частота : 48,0 КГц
Частота кадров : 41,667 кадра/сек (1152 SPF)
Метод сжатия : С потерями
Размер потока : 58,5 Мбайт (9%)
Выравнивание : Соединение по промежуткам
Продолжительность промежутка : 24 мс. (0,58 видеокадр)
Время предзагрузки промежутка : 522 мс.
Библиотека кодирования : LAME3.97b
Настройки программы : -m j -V 4 -q 3 -lowpass 18.6 --abr 192

Общее
Полное имя : G:\Торрент\The.Walking.Dead.S10.WEB-DL.LostFilm\The.Walking.Dead.S10E05.rus.LostFilm.TV.avi
Формат : AVI
Формат/Информация : Audio Video Interleave
Размер файла : 701 Мбайт
Продолжительность : 46 м. 19 с.
Режим общего битрейта : Переменный
Общий поток : 2114 Кбит/сек
Программа кодирования : Nandub v1.0rc2
Библиотека кодирования : Nandub build 1853/release

Видео
Идентификатор : 0
Формат : MPEG-4 Visual
Профиль формата : Advanced Simple@L5
Параметр BVOP формата : Нет
Параметр QPel формата : Нет
Параметр GMC формата : Без точки перехода
Параметр матрицы формата : Default (MPEG)
Идентификатор кодека : XVID
Идентификатор кодека/Подсказка : XviD
Продолжительность : 46 м. 19 с.
Битрейт : 1915 Кбит/сек
Ширина : 720 пикселей
Высота : 400 пикселей
Соотношение сторон : 16:9
Частота кадров : 23,976 (24000/1001) кадра/сек
Частота кадров в оригинале : 23,976 (23976/1000) кадра/сек
Цветовое пространство : YUV
Субдискретизация насыщенности : 4:2:0
Битовая глубина : 8 бит
Тип развёртки : Прогрессивная
Метод сжатия : С потерями
Бит/(Пиксели*Кадры) : 0.277
Размер потока : 635 Мбайт (91%)
Библиотека кодирования : XviD 1.2.1 (UTC 2008-12-04)

Аудио
Идентификатор : 1
Формат : MPEG Audio
Версия формата : Version 1
Профиль формата : Layer 3
Настройки формата : Joint stereo
Идентификатор кодека : 55
Идентификатор кодека/Подсказка : MP3
Продолжительность : 46 м. 19 с.
Вид битрейта : Переменный
Битрейт : 192 Кбит/сек
Каналы : 2 канала
Частота : 48,0 КГц
Частота кадров : 41,667 кадра/сек (1152 SPF)
Метод сжатия : С потерями
Размер потока : 61,7 Мбайт (9%)
Выравнивание : Соединение по промежуткам
Продолжительность промежутка : 24 мс. (0,58 видеокадр)
Время предзагрузки промежутка : 515 мс.
Библиотека кодирования : LAME3.97b
Настройки программы : -m j -V 4 -q 3 -lowpass 18.6 --abr 192

Общее
Полное имя : G:\Торрент\The.Walking.Dead.S10.WEB-DL.LostFilm\The.Walking.Dead.S10E06.rus.LostFilm.TV.avi
Формат : AVI
Формат/Информация : Audio Video Interleave
Размер файла : 690 Мбайт
Продолжительность : 45 м. 46 с.
Режим общего битрейта : Переменный
Общий поток : 2107 Кбит/сек
Программа кодирования : Nandub v1.0rc2
Библиотека кодирования : Nandub build 1853/release

Видео
Идентификатор : 0
Формат : MPEG-4 Visual
Профиль формата : Advanced Simple@L5
Параметр BVOP формата : Нет
Параметр QPel формата : Нет
Параметр GMC формата : Без точки перехода
Параметр матрицы формата : Default (MPEG)
Идентификатор кодека : XVID
Идентификатор кодека/Подсказка : XviD
Продолжительность : 45 м. 46 с.
Битрейт : 1907 Кбит/сек
Ширина : 720 пикселей
Высота : 400 пикселей
Соотношение сторон : 16:9
Частота кадров : 23,976 (24000/1001) кадра/сек
Частота кадров в оригинале : 23,976 (23976/1000) кадра/сек
Цветовое пространство : YUV
Субдискретизация насыщенности : 4:2:0
Битовая глубина : 8 бит
Тип развёртки : Прогрессивная
Метод сжатия : С потерями
Бит/(Пиксели*Кадры) : 0.276
Размер потока : 624 Мбайт (91%)
Библиотека кодирования : XviD 1.2.1 (UTC 2008-12-04)

Аудио
Идентификатор : 1
Формат : MPEG Audio
Версия формата : Version 1
Профиль формата : Layer 3
Настройки формата : Joint stereo
Идентификатор кодека : 55
Идентификатор кодека/Подсказка : MP3
Продолжительность : 45 м. 45 с.
Вид битрейта : Переменный
Битрейт : 192 Кбит/сек
Каналы : 2 канала
Частота : 48,0 КГц
Частота кадров : 41,667 кадра/сек (1152 SPF)
Метод сжатия : С потерями
Размер потока : 61,2 Мбайт (9%)
Выравнивание : Соединение по промежуткам
Продолжительность промежутка : 24 мс. (0,58 видеокадр)
Время предзагрузки промежутка : 517 мс.
Библиотека кодирования : LAME3.97b
Настройки программы : -m j -V 4 -q 3 -lowpass 18.6 --abr 192

Общее
Полное имя : G:\Торрент\The.Walking.Dead.S10.WEB-DL.LostFilm\The.Walking.Dead.S10E07.rus.LostFilm.TV.avi
Формат : AVI
Формат/Информация : Audio Video Interleave
Размер файла : 662 Мбайт
Продолжительность : 44 м. 36 с.
Режим общего битрейта : Переменный
Общий поток : 2073 Кбит/сек
Программа кодирования : Nandub v1.0rc2
Библиотека кодирования : Nandub build 1853/release

Видео
Идентификатор : 0
Формат : MPEG-4 Visual
Профиль формата : Advanced Simple@L5
Параметр BVOP формата : Нет
Параметр QPel формата : Нет
Параметр GMC формата : Без точки перехода
Параметр матрицы формата : Default (MPEG)
Идентификатор кодека : XVID
Идентификатор кодека/Подсказка : XviD
Продолжительность : 44 м. 36 с.
Битрейт : 1875 Кбит/сек
Ширина : 720 пикселей
Высота : 400 пикселей
Соотношение сторон : 16:9
Частота кадров : 23,976 (24000/1001) кадра/сек
Частота кадров в оригинале : 23,976 (23976/1000) кадра/сек
Цветовое пространство : YUV
Субдискретизация насыщенности : 4:2:0
Битовая глубина : 8 бит
Тип развёртки : Прогрессивная
Метод сжатия : С потерями
Бит/(Пиксели*Кадры) : 0.271
Размер потока : 598 Мбайт (90%)
Библиотека кодирования : XviD 1.2.1 (UTC 2008-12-04)

Аудио
Идентификатор : 1
Формат : MPEG Audio
Версия формата : Version 1
Профиль формата : Layer 3
Настройки формата : Joint stereo / MS Stereo
Идентификатор кодека : 55
Идентификатор кодека/Подсказка : MP3
Продолжительность : 44 м. 36 с.
Вид битрейта : Переменный
Битрейт : 192 Кбит/сек
Каналы : 2 канала
Частота : 48,0 КГц
Частота кадров : 41,667 кадра/сек (1152 SPF)
Метод сжатия : С потерями
Размер потока : 59,3 Мбайт (9%)
Выравнивание : Соединение по промежуткам
Продолжительность промежутка : 24 мс. (0,58 видеокадр)
Время предзагрузки промежутка : 516 мс.
Библиотека кодирования : LAME3.97b
Настройки программы : -m j -V 4 -q 3 -lowpass 18.6 --abr 192

Общее
Полное имя : G:\Торрент\The.Walking.Dead.S10.WEB-DL.LostFilm\The.Walking.Dead.S10E08.rus.LostFilm.TV.avi
Формат : AVI
Формат/Информация : Audio Video Interleave
Размер файла : 829 Мбайт
Продолжительность : 54 м. 48 с.
Режим общего битрейта : Переменный
Общий поток : 2114 Кбит/сек
Программа кодирования : Nandub v1.0rc2
Библиотека кодирования : Nandub build 1853/release

Видео
Идентификатор : 0
Формат : MPEG-4 Visual
Профиль формата : Advanced Simple@L5
Параметр BVOP формата : Нет
Параметр QPel формата : Нет
Параметр GMC формата : Без точки перехода
Параметр матрицы формата : Default (MPEG)
Идентификатор кодека : XVID
Идентификатор кодека/Подсказка : XviD
Продолжительность : 54 м. 48 с.
Битрейт : 1914 Кбит/сек
Ширина : 720 пикселей
Высота : 400 пикселей
Соотношение сторон : 16:9
Частота кадров : 23,976 (24000/1001) кадра/сек
Частота кадров в оригинале : 23,976 (23976/1000) кадра/сек
Цветовое пространство : YUV
Субдискретизация насыщенности : 4:2:0
Битовая глубина : 8 бит
Тип развёртки : Прогрессивная
Метод сжатия : С потерями
Бит/(Пиксели*Кадры) : 0.277
Размер потока : 750 Мбайт (91%)
Библиотека кодирования : XviD 1.2.1 (UTC 2008-12-04)

Аудио
Идентификатор : 1
Формат : MPEG Audio
Версия формата : Version 1
Профиль формата : Layer 3
Настройки формата : Joint stereo
Идентификатор кодека : 55
Идентификатор кодека/Подсказка : MP3
Продолжительность : 54 м. 48 с.
Вид битрейта : Переменный
Битрейт : 192 Кбит/сек
Каналы : 2 канала
Частота : 48,0 КГц
Частота кадров : 41,667 кадра/сек (1152 SPF)
Метод сжатия : С потерями
Размер потока : 73,3 Мбайт (9%)
Выравнивание : Соединение по промежуткам
Продолжительность промежутка : 24 мс. (0,58 видеокадр)
Время предзагрузки промежутка : 513 мс.
Библиотека кодирования : LAME3.97b
Настройки программы : -m j -V 4 -q 3 -lowpass 18.6 --abr 192

Общее
Полное имя : G:\Торрент\The.Walking.Dead.S10.WEB-DL.LostFilm\The.Walking.Dead.S10E09.rus.LostFilm.TV.avi
Формат : AVI
Формат/Информация : Audio Video Interleave
Размер файла : 535 Мбайт
Продолжительность : 45 м. 3 с.
Режим общего битрейта : Переменный
Общий поток : 1659 Кбит/сек
Программа кодирования : Nandub v1.0rc2
Библиотека кодирования : Nandub build 1853/release

Видео
Идентификатор : 0
Формат : MPEG-4 Visual
Профиль формата : Advanced Simple@L5
Параметр BVOP формата : Нет
Параметр QPel формата : Нет
Параметр GMC формата : Без точки перехода
Параметр матрицы формата : Default (MPEG)
Идентификатор кодека : XVID
Идентификатор кодека/Подсказка : XviD
Продолжительность : 45 м. 3 с.
Битрейт : 1460 Кбит/сек
Ширина : 720 пикселей
Высота : 400 пикселей
Соотношение сторон : 16:9
Частота кадров : 23,976 (24000/1001) кадра/сек
Частота кадров в оригинале : 23,976 (23976/1000) кадра/сек
Цветовое пространство : YUV
Субдискретизация насыщенности : 4:2:0
Битовая глубина : 8 бит
Тип развёртки : Прогрессивная
Метод сжатия : С потерями
Бит/(Пиксели*Кадры) : 0.211
Размер потока : 471 Мбайт (88%)
Библиотека кодирования : XviD 1.2.1 (UTC 2008-12-04)

Аудио
Идентификатор : 1
Формат : MPEG Audio
Версия формата : Version 1
Профиль формата : Layer 3
Настройки формата : Joint stereo
Идентификатор кодека : 55
Идентификатор кодека/Подсказка : MP3
Продолжительность : 45 м. 3 с.
Вид битрейта : Переменный
Битрейт : 192 Кбит/сек
Каналы : 2 канала
Частота : 48,0 КГц
Частота кадров : 41,667 кадра/сек (1152 SPF)
Метод сжатия : С потерями
Размер потока : 59,8 Мбайт (11%)
Выравнивание : Соединение по промежуткам
Продолжительность промежутка : 24 мс. (0,58 видеокадр)
Время предзагрузки промежутка : 508 мс.
Библиотека кодирования : LAME3.97b
Настройки программы : -m j -V 4 -q 3 -lowpass 18.6 --abr 192

(1) остановить скачивание,
(2) удалить старый торрент у себя из клиента (старые серии удалять не надо),
(3) скачать новый торрент и запустить его у себя в клиенте вместо старого, при этом указать клиенту путь в старую папку куда и должно происходить скачивание новых серий.
Ваш клиент при этом должен произвести хеширование (проверку) старой папки (если не производит сам - помогите ему сделать это), и будет докачивать только те серии которых у вас ещё нет. Старые серии при этом не удаляются, а продолжают раздаваться!
Eсли вы уже удалили старые серии, то предотвратить повторную закачку старых серий можно, отжав галочку в соответсвующих местах при запуске нового торрента. По возможности, желательно не удалять старые серии как можно дольше чтобы релизёр не столько продолжал раздавать старые серии, а смог сконцентрироваться на новых.
pb.wtf



Скачать Ходячие мертвецы через торрент https://img11.lostpic.net/2020/10/07/d34a8ad4a0bce5b9f8a6ef99074438ab.png Скачать фильм Ходячие мертвецы через торрент бесплантно в хорошем качестве Описание: Спустя несколько месяцев после резни во время ярмарки сообщества, проведённой Альфой (Саманта Мортон), обстоятельства ... 10 10 2
Торрент: Зарегистрирован [2021-04-06 19:52] · скачан: 27 раз
Статус: √ проверено
Размер: 14.35 GB
Как cкачать? Как скачать Ходячие мертвецы через торрент | UTorrent

% Раздел Тема Автор DL S | L
T Ходячие мертвецы (The Walking Dead) [ 13.88 GB ] Ходячие мертвецы / The Walking Dead / Сезон: 10 / Серия: 1-22 из 22 [2019-2021 WEBRip] [MVO] killermax2013 Скачать
5 | 14
Ходячие мертвецы (The Walking Dead) [ 73.21 GB ] Ходячие мертвецы / The Walking Dead / Сезон: 10 / Серии: 1-21 из 22 [2019 WEB-DL 1080p] MVO [Jaskier] bober100 Скачать
1 | 2
Ходячие мертвецы (The Walking Dead) [ 43.09 GB ] Ходячие мертвецы / The Walking Dead / Сезон: 10 / Серии: 1-21 из 22 [2019 WEB-DL 720p] MVO [Jaskier] bober100 Скачать
1 | 2
Ходячие мертвецы (The Walking Dead) [ 12.34 GB ] Ходячие мертвецы / The Walking Dead / Сезон: 10 / Серии: 1-22 из 22 [2019 WEB-DLRip] MVO [Jaskier] bober100 Скачать
2 | 0
T Ходячие мертвецы (The Walking Dead) [ 9.71 GB ] Ходячие мертвецы / The Walking Dead / Сезон: 10 / Серии: 1-19 из 22 [2019 WEBRip] DVO [Kerob] bober100 Скачать
2 | 1


Последний раз редактировалось: Эдвард Кенуэй (2021-04-06 19:52), всего редактировалось 20 раз(а)

28-11-2019 20:33  

Отключить всю рекламу на сайте

19-03-2020 13:42 Ходячие мертвецы Скачать торрент  

12 серия огонь. Автору респект!!!pb.wtf



08-04-2020 13:18 Ходячие мертвецы Скачать торрент  

не 1-15 из 16.а сезон закончился. Именно 15 серий больше не будет

У зомби нет иммунитета
25 марта 2020 г.
Десятый сезон «Ходячих мертвецов» остался без финала
Коронавирус уже собрал внушительный список жертв среди телевизионных проектов: съемки одних приостановлены, премьеры других отменяются, а братья Винчестеры все никак не могут попрощаться со зрителями. Оказалось, что иммунитета к коронавирусу нет даже у зомби, и «Ходячие мертвецы» тоже подхватили заразу.

«Происходящие в мире события превратили постпродакшен финала десятого сезона в невыполнимую миссию, — сообщил журналистам представитель канала AMC. — Поэтому текущий сезон завершится 15-й серией, которая выйдет 5 апреля. Запланированный финал будет показан в качестве специального эпизода позднее».pb.wtf



14-04-2020 04:43 Ходячие мертвецы Скачать торрент  

АлександрВескер писал(а):

не 1-15 из 16.а сезон закончился. Именно 15 серий больше не будет

У зомби нет иммунитета
25 марта 2020 г.
Десятый сезон «Ходячих мертвецов» остался без финала
Коронавирус уже собрал внушительный список жертв среди телевизионных проектов: съемки одних приостановлены, премьеры других отменяются, а братья Винчестеры все никак не могут попрощаться со зрителями. Оказалось, что иммунитета к коронавирусу нет даже у зомби, и «Ходячие мертвецы» тоже подхватили заразу.

«Происходящие в мире события превратили постпродакшен финала десятого сезона в невыполнимую миссию, — сообщил журналистам представитель канала AMC. — Поэтому текущий сезон завершится 15-й серией, которая выйдет 5 апреля. Запланированный финал будет показан в качестве специального эпизода позднее».

обидно, а то я начал с 1 сезона смотреть на карантине и тут на тебеpb.wtf



19-04-2020 11:40 Ходячие мертвецы Скачать торрент  

плачу ((((pb.wtf



13-05-2020 08:04 Ходячие мертвецы Скачать торрент  

С каждым сезоном сериал портится и становиться похож на "Рабыню Изауру"!
Действия героев бессмысленны и дебильны, и вообще попусту бесят!
Странно как герои вообще выживают в мире постапокалипсиса!
Сериал вообще наводнили гомики и лезбиянки, при чем и действия героев подстать их половому статусу!
В общем еле досматриваю 10 сезон!pb.wtf



07-10-2020 13:39 Ходячие мертвецы Скачать торрент  

Где-то написали, что 11 сезон будет последним. Хочется верить в хэппи-энд и что реанимируют Рика.pb.wtf



25-02-2021 20:49 Ходячие мертвецы Скачать торрент  

11-й сезон ещё будет и он будет финальным! Так что ждёмpb.wtf



25-02-2021 21:29 Ходячие мертвецы Скачать торрент  

бред просто, как можно ето смотреть, посмотрел 6 сезонов, больше не смог ету санту барбару смотреть.pb.wtf



    Дорогой пользователь! Огромная просьба, поблагодарите релизера, оцените раздачу и оставьте свои комментарий, если Вы скачали Ходячие мертвецы через торрент бесплатно! Внесите свою лепту в развитие PiratBit!
    Комментировать посты могут только пользователи прошедшие не сложную регистрацию
    Показать сообщения:    

    Ходячие мертвецы через торрент
    Скачать бесплатно Ходячие мертвецы
    Ходячие мертвецы скачать торрент
    Ходячие мертвецы смотреть онлайн
    Cкачать фильм Ходячие мертвецы бесплатно
    Ходячие мертвецы скачать торрент в хорошем качестве
    Ходячие мертвецы смотреть онлайн бесплатно в хорошем качестве


    Вы не можете начинать темы
    Вы не можете отвечать на сообщения
    Вы не можете редактировать свои сообщения
    Вы не можете удалять свои сообщения
    Вы не можете голосовать в опросах
    Вы не можете прикреплять файлы к сообщениям
    Вы можете скачивать файлы