2 сезон

iTunes

MVO

1

2 сезон

iTunes

iTunes

1 сезон

RePack

30

Новинка

ВАЖНО

ИГРА 18+

pack

RePack

MK11
pack

Легкие деньги

RePack

jed

RePack

fifa19

RePack

RDR2

RePack

NEED FOR SPEED™ PAYBACK

4 сезон

9 сезон

Бесстыжие 9 сезон

Все сериалы

все сериалы на PB.wtf

RePack

FAR CRY 5

Anonymous, добрый день, мы не успеваем собрать деньги на оплату серверов за декабрь и январь, помогите нам пожалуйста в это трудное время. В качестве благодарности мы отключим Вам всю рекламу на сайте (укажите свой ник в строку Ваше имя)!

×
  
Magnet ссылка

Видоизмененный углерод / Altered Carbon / Сезон: 2 / Серия: 1-8 из 8 (Ута Бризвитц, Алекс Грейвз, Питер Хор) [2020, фантастика, WEBRip 1080p] [Multi Subs] (Arab, Eng, Chi, Ger, Spa, Rus, etc) pb.wtf

Видоизмененный углерод через торрент pb.wtf

Размер: 14.09 GB | Добавлен: 10 мес. назад | Торрент скачан:61 раз
Скачать  

27-02-2020 16:36 Видоизмененный углерод Скачать торрент  

ВИДОИЗМЕНЕННЫЙ УГЛЕРОДAltered Carbon Год выпуска: 2020
Страна: США
Жанр: Фантастика, боевик
Продолжительность: ~00:58:00
✦ Перевод: Отсутствует ! [английский оригинал]
Субтитры: арабские, немецкие, японские, испанские, английские, португальские, французские, китайские,Русские

Режиссёр: Ута Бризвитц, Алекс Грейвз, Питер Хор

В ролях: Юэль Киннаман, Джеймс Пьюрфой, Марта Игареда, Крис Коннер, Антонио Марциале, Кристин Леман, Хиро Канагава, Валид Зуэйтер, Марлин Форте, Алика Аутран, Хэйли Лоу, Тич Грант, Заф Пару, Тамара Тейлор, Адам Буш, Дичен Лакмэн, Лиза Чандлер, Ато Эссонда, Байрон Манн, Треу Трэн, Рене Голдсберри

Описание: Действие «Altered Carbon» происходит в 25 веке истории человечества. Учёные научились полностью оцифровывать человеческий разум. Как следствие, та субстанция, которую мы называем «душой», запросто перемещается из одного тела, пришедшего в негодность, в новенькое. Главного героя «Изменённого углерода» зовут Такеши Ковач, он бывший элитный межзвёздный воин, известный как Посланник.

Такеши приговорён к тюремном сроку длительностью в 500 лет. Его «загружают» в будущее, против которого он боролся. Если Ковачу удастся совершить хотя бы одно убийство в новом мире, где научные технологии превратили само понятие «смерть» в нечто устаревшее, он на деле станет Посланником. Ведь тогда он не только получит шанс на новую жизнь на Земле – он в одиночку изменит течение Истории.

rating скриншот  

Качество: WEBRip 1080p
Формат: MKV
Видео: 1920x1080, 23.976 fps, MPEG-4 AVC ~7 500 kbps
Аудио: E-AC3, 6 ch, 768 Кбит/с - English
Video
ID : 1
Format : AVC
Format/Info : Advanced Video Codec
Format profile : Main@L4
Format settings : CABAC / 3 Ref Frames
Format settings, CABAC : Yes
Format settings, Reference frames : 3 frames
Codec ID : V_MPEG4/ISO/AVC
Duration : 50 min 17 s
Bit rate mode : Variable
Bit rate : 7 500 kb/s
Maximum bit rate : 11.2 Mb/s
Width : 1 920 pixels
Height : 1 080 pixels
Display aspect ratio : 16:9
Frame rate mode : Constant
Frame rate : 23.976 (24000/1001) FPS
Color space : YUV
Chroma subsampling : 4:2:0
Bit depth : 8 bits
Scan type : Progressive
Bits/(Pixel*Frame) : 0.151
Stream size : 2.57 GiB (90%)
Writing library : x264 core 148 r2717 0d2410d
Encoding settings : cabac=1 / ref=3 / deblock=1:0:0 / analyse=0x1:0x111 / me=umh / subme=10 / psy=1 / psy_rd=1.00:0.00 / mixed_ref=1 / me_range=24 / chroma_me=1 / trellis=2 / 8x8dct=0 / cqm=0 / deadzone=21,11 / fast_pskip=1 / chroma_qp_offset=-2 / threads=8 / lookahead_threads=1 / sliced_threads=0 / nr=0 / decimate=1 / interlaced=0 / bluray_compat=0 / stitchable=1 / constrained_intra=0 / bframes=2 / b_pyramid=0 / b_adapt=2 / b_bias=0 / direct=3 / weightb=1 / open_gop=0 / weightp=2 / keyint=250 / keyint_min=23 / scenecut=0 / intra_refresh=0 / rc_lookahead=48 / rc=2pass / mbtree=1 / bitrate=7500 / ratetol=1.0 / qcomp=0.50 / qpmin=6 / qpmax=51 / qpstep=4 / cplxblur=20.0 / qblur=0.5 / vbv_maxrate=11250 / vbv_bufsize=15000 / nal_hrd=vbr / filler=0 / ip_ratio=1.40 / aq=1:1.00
Default : Yes
Forced : No

Audio
ID : 2
Format : E-AC-3 JOC
Format/Info : Enhanced AC-3 with Joint Object Coding
Commercial name : Dolby Digital Plus with Dolby Atmos
Codec ID : A_EAC3
Duration : 50 min 17 s
Bit rate mode : Constant
Bit rate : 768 kb/s
Channel(s) : 6 channels
Channel layout : L R C LFE Ls Rs
Sampling rate : 48.0 kHz
Frame rate : 31.250 FPS (1536 SPF)
Compression mode : Lossy
Stream size : 276 MiB (9%)
Title : English
Language : English
Service kind : Complete Main
Default : Yes
Forced : No
Complexity index : 16
Number of dynamic objects : 15
Bed channel count : 1 channel
Bed channel configuration : LFE

Text #1
ID : 3
Format : UTF-8
Codec ID : S_TEXT/UTF8
Codec ID/Info : UTF-8 Plain Text
Duration : 46 min 5 s
Bit rate : 69 b/s
Count of elements : 694
Stream size : 23.3 KiB (0%)
Language : English
Default : No
Forced : No

Text #2
ID : 4
Format : UTF-8
Codec ID : S_TEXT/UTF8
Codec ID/Info : UTF-8 Plain Text
Duration : 47 min 0 s
Bit rate : 72 b/s
Count of elements : 749
Stream size : 25.0 KiB (0%)
Title : SDH
Language : English
Default : No
Forced : No

Text #3
ID : 5
Format : UTF-8
Codec ID : S_TEXT/UTF8
Codec ID/Info : UTF-8 Plain Text
Duration : 48 min 55 s
Bit rate : 109 b/s
Count of elements : 754
Stream size : 39.3 KiB (0%)
Language : Arabic
Default : No
Forced : No

Text #4
ID : 6
Format : UTF-8
Codec ID : S_TEXT/UTF8
Codec ID/Info : UTF-8 Plain Text
Duration : 48 min 55 s
Bit rate : 55 b/s
Count of elements : 739
Stream size : 20.0 KiB (0%)
Language : Czech
Default : No
Forced : No

Text #5
ID : 7
Format : UTF-8
Codec ID : S_TEXT/UTF8
Codec ID/Info : UTF-8 Plain Text
Duration : 48 min 55 s
Bit rate : 60 b/s
Count of elements : 665
Stream size : 21.8 KiB (0%)
Language : Danish
Default : No
Forced : No

Text #6
ID : 8
Format : UTF-8
Codec ID : S_TEXT/UTF8
Codec ID/Info : UTF-8 Plain Text
Duration : 48 min 53 s
Bit rate : 59 b/s
Count of elements : 672
Stream size : 21.4 KiB (0%)
Language : German
Default : No
Forced : No

Text #7
ID : 9
Format : UTF-8
Codec ID : S_TEXT/UTF8
Codec ID/Info : UTF-8 Plain Text
Duration : 48 min 55 s
Bit rate : 100 b/s
Count of elements : 754
Stream size : 36.0 KiB (0%)
Language : Greek
Default : No
Forced : No

Text #8
ID : 10
Format : UTF-8
Codec ID : S_TEXT/UTF8
Codec ID/Info : UTF-8 Plain Text
Duration : 48 min 53 s
Bit rate : 60 b/s
Count of elements : 740
Stream size : 21.7 KiB (0%)
Language : Spanish
Default : No
Forced : No

Text #9
ID : 11
Format : UTF-8
Codec ID : S_TEXT/UTF8
Codec ID/Info : UTF-8 Plain Text
Duration : 48 min 55 s
Bit rate : 59 b/s
Count of elements : 724
Stream size : 21.2 KiB (0%)
Title : European
Language : Spanish
Default : No
Forced : No

Text #10
ID : 12
Format : UTF-8
Codec ID : S_TEXT/UTF8
Codec ID/Info : UTF-8 Plain Text
Duration : 49 min 0 s
Bit rate : 56 b/s
Count of elements : 642
Stream size : 20.4 KiB (0%)
Language : Finnish
Default : No
Forced : No

Text #11
ID : 13
Format : UTF-8
Codec ID : S_TEXT/UTF8
Codec ID/Info : UTF-8 Plain Text
Duration : 48 min 55 s
Bit rate : 63 b/s
Count of elements : 632
Stream size : 22.8 KiB (0%)
Language : French
Default : No
Forced : No

Text #12
ID : 14
Format : UTF-8
Codec ID : S_TEXT/UTF8
Codec ID/Info : UTF-8 Plain Text
Duration : 48 min 55 s
Bit rate : 100 b/s
Count of elements : 766
Stream size : 35.9 KiB (0%)
Language : Hebrew
Default : No
Forced : No

Text #13
ID : 15
Format : UTF-8
Codec ID : S_TEXT/UTF8
Codec ID/Info : UTF-8 Plain Text
Duration : 48 min 55 s
Bit rate : 63 b/s
Count of elements : 734
Stream size : 22.9 KiB (0%)
Language : Hungarian
Default : No
Forced : No

Text #14
ID : 16
Format : UTF-8
Codec ID : S_TEXT/UTF8
Codec ID/Info : UTF-8 Plain Text
Duration : 48 min 57 s
Bit rate : 63 b/s
Count of elements : 675
Stream size : 22.7 KiB (0%)
Language : Indonesian
Default : No
Forced : No

Text #15
ID : 17
Format : UTF-8
Codec ID : S_TEXT/UTF8
Codec ID/Info : UTF-8 Plain Text
Duration : 49 min 0 s
Bit rate : 57 b/s
Count of elements : 666
Stream size : 20.6 KiB (0%)
Language : Italian
Default : No
Forced : No

Text #16
ID : 18
Format : UTF-8
Codec ID : S_TEXT/UTF8
Codec ID/Info : UTF-8 Plain Text
Duration : 48 min 55 s
Bit rate : 59 b/s
Count of elements : 670
Stream size : 21.5 KiB (0%)
Language : Japanese
Default : No
Forced : No

Text #17
ID : 19
Format : UTF-8
Codec ID : S_TEXT/UTF8
Codec ID/Info : UTF-8 Plain Text
Duration : 48 min 52 s
Bit rate : 76 b/s
Count of elements : 743
Stream size : 27.3 KiB (0%)
Language : Korean
Default : No
Forced : No

Text #18
ID : 20
Format : UTF-8
Codec ID : S_TEXT/UTF8
Codec ID/Info : UTF-8 Plain Text
Duration : 48 min 55 s
Bit rate : 61 b/s
Count of elements : 595
Stream size : 22.2 KiB (0%)
Language : Norwegian Bokmal
Default : No
Forced : No

Text #19
ID : 21
Format : UTF-8
Codec ID : S_TEXT/UTF8
Codec ID/Info : UTF-8 Plain Text
Duration : 48 min 55 s
Bit rate : 55 b/s
Count of elements : 628
Stream size : 19.8 KiB (0%)
Language : Dutch
Default : No
Forced : No

Text #20
ID : 22
Format : UTF-8
Codec ID : S_TEXT/UTF8
Codec ID/Info : UTF-8 Plain Text
Duration : 48 min 55 s
Bit rate : 57 b/s
Count of elements : 708
Stream size : 20.5 KiB (0%)
Language : Polish
Default : No
Forced : No

Text #21
ID : 23
Format : UTF-8
Codec ID : S_TEXT/UTF8
Codec ID/Info : UTF-8 Plain Text
Duration : 48 min 55 s
Bit rate : 65 b/s
Count of elements : 730
Stream size : 23.5 KiB (0%)
Language : Portuguese
Default : No
Forced : No

Text #22
ID : 24
Format : UTF-8
Codec ID : S_TEXT/UTF8
Codec ID/Info : UTF-8 Plain Text
Duration : 46 min 54 s
Bit rate : 63 b/s
Count of elements : 694
Stream size : 21.7 KiB (0%)
Title : Brazilian
Language : Portuguese
Default : No
Forced : No

Text #23
ID : 25
Format : UTF-8
Codec ID : S_TEXT/UTF8
Codec ID/Info : UTF-8 Plain Text
Duration : 48 min 55 s
Bit rate : 72 b/s
Count of elements : 718
Stream size : 25.8 KiB (0%)
Language : Romanian
Default : No
Forced : No

Text #24
ID : 26
Format : UTF-8
Codec ID : S_TEXT/UTF8
Codec ID/Info : UTF-8 Plain Text
Duration : 48 min 55 s
Bit rate : 105 b/s
Count of elements : 718
Stream size : 37.7 KiB (0%)
Language : Russian
Default : No
Forced : No

Text #25
ID : 27
Format : UTF-8
Codec ID : S_TEXT/UTF8
Codec ID/Info : UTF-8 Plain Text
Duration : 48 min 55 s
Bit rate : 58 b/s
Count of elements : 564
Stream size : 20.9 KiB (0%)
Language : Swedish
Default : No
Forced : No

Text #26
ID : 28
Format : UTF-8
Codec ID : S_TEXT/UTF8
Codec ID/Info : UTF-8 Plain Text
Duration : 48 min 55 s
Bit rate : 172 b/s
Count of elements : 754
Stream size : 61.8 KiB (0%)
Language : Thai
Default : No
Forced : No

Text #27
ID : 29
Format : UTF-8
Codec ID : S_TEXT/UTF8
Codec ID/Info : UTF-8 Plain Text
Duration : 48 min 55 s
Bit rate : 63 b/s
Count of elements : 714
Stream size : 22.6 KiB (0%)
Language : Turkish
Default : No
Forced : No

Text #28
ID : 30
Format : UTF-8
Codec ID : S_TEXT/UTF8
Codec ID/Info : UTF-8 Plain Text
Duration : 48 min 55 s
Bit rate : 88 b/s
Count of elements : 735
Stream size : 31.9 KiB (0%)
Language : Vietnamese
Default : No
Forced : No

Text #29
ID : 31
Format : UTF-8
Codec ID : S_TEXT/UTF8
Codec ID/Info : UTF-8 Plain Text
Duration : 48 min 55 s
Bit rate : 68 b/s
Count of elements : 754
Stream size : 24.4 KiB (0%)
Title : Simplified
Language : Chinese
Default : No
Forced : No

Text #30
ID : 32
Format : UTF-8
Codec ID : S_TEXT/UTF8
Codec ID/Info : UTF-8 Plain Text
Duration : 48 min 55 s
Bit rate : 55 b/s
Count of elements : 769
Stream size : 19.8 KiB (0%)
Title : Traditional
Language : Chinese
Default : No
Forced : No

Menu
00:00:06.632 : en:Intro start
00:00:34.034 : en:Intro end
скриншот  скриншот  скриншот  
pb.wtf



Скачать Видоизмененный углерод через торрент https://i111.fastpic.ru/big/2020/0227/6e/680458a27f6a4abcb6361f57209d136e.jpg Скачать фильм Видоизмененный углерод через торрент бесплантно в хорошем качестве Описание: Действие «Altered Carbon» происходит в 25 веке истории человечества. Учёные научились полностью оцифровывать человеческий разум. ... 10 10 6
Торрент: Зарегистрирован [2020-02-27 16:36] · скачан: 61 раз
Статус: √ проверено
Размер: 14.09 GB
Как cкачать? Как скачать Видоизмененный углерод через торрент | UTorrent

% Раздел Тема Автор DL S | L
Зарубежные сериалы [ 39.97 GB ] Видоизменённый углерод / Altered Carbon / Сезон: 2 / Серии: 1-8 из 8 [2020 WEBRip 1080p] 2xMVO [NewStudio LostFilm] bober100 Скачать
2 | 0
Зарубежные сериалы [ 5.52 GB ] Видоизменённый углерод / Altered Carbon / Сезон: 2 / Серии: 1-8 из 8 [2020 WEB-DLRip] MVO [LostFilm] bober100 Скачать
2 | 0
Зарубежные сериалы [ 22.6 GB ] Видоизменённый углерод / Altered Carbon / Сезон: 2 / Серии: 1-8 из 8 [2020 WEBRip 720p] 2xMVO [NewStudio LostFilm] bober100 Скачать
1 | 0
Зарубежные сериалы [ 14.08 GB ] Видоизменённый углерод / Altered Carbon / Сезон: 2 / Серии: 1-8 из 8 [2020 WEBRip 1080p] MVO [Jaskier] bober100 Скачать
3 | 1
Зарубежные сериалы [ 8.55 GB ] Видоизменённый углерод / Altered Carbon / Сезон: 2 / Серии: 1-8 из 8 [2020 WEBRip 720p] MVO [Jaskier] bober100 Скачать
1 | 0
Зарубежные сериалы [ 4.62 GB ] Видоизменённый углерод / Altered Carbon / Сезон: 2 / Серии: 1-8 из 8 [2020 WEBRip] MVO [Jaskier] bober100 Скачать
2 | 0
Зарубежные сериалы [ 14.24 GB ] Видоизмененный углерод / Altered Carbon / Сезон: 2 / Серия: 1-8 из 8 [2020 WEB-DL 1080p] [MVO] killermax2013 Скачать
3 | 0

28-11-2019 20:33  

Отключить всю рекламу на сайте


28-02-2020 07:16 Видоизмененный углерод Скачать торрент  

Спасибо, добрый человек!pb.wtf



    Дорогой пользователь! Огромная просьба, поблагодарите релизера, оцените раздачу и оставьте свои комментарий, если Вы скачали Видоизмененный углерод через торрент бесплатно! Внесите свою лепту в развитие PiratBit!
    Комментировать посты могут только пользователи прошедшие не сложную регистрацию
    Показать сообщения:    

    Видоизмененный углерод через торрент
    Скачать бесплатно Видоизмененный углерод
    Видоизмененный углерод скачать торрент
    Видоизмененный углерод смотреть онлайн
    Cкачать фильм Видоизмененный углерод бесплатно
    Видоизмененный углерод скачать торрент в хорошем качестве
    Видоизмененный углерод смотреть онлайн бесплатно в хорошем качестве


    Вы не можете начинать темы
    Вы не можете отвечать на сообщения
    Вы не можете редактировать свои сообщения
    Вы не можете удалять свои сообщения
    Вы не можете голосовать в опросах
    Вы не можете прикреплять файлы к сообщениям
    Вы можете скачивать файлы