2 сезон

iTunes

MVO

1

2 сезон

iTunes

iTunes

1 сезон

RePack

30

Новинка

ВАЖНО

ИГРА 18+

pack

RePack

MK11
pack

Легкие деньги

RePack

jed

RePack

fifa19

RePack

RDR2

RePack

NEED FOR SPEED™ PAYBACK

4 сезон

9 сезон

Бесстыжие 9 сезон

Все сериалы

все сериалы на PB.wtf

RePack

FAR CRY 5

Anonymous, добрый вечер, мы не успеваем собрать деньги на оплату серверов за декабрь и январь, помогите нам пожалуйста в это трудное время. В качестве благодарности мы отключим Вам всю рекламу на сайте (укажите свой ник в строку Ваше имя)!

×
  
Magnet ссылка

Проклятое место в 3Д / Lost Place 3D (Торстен Клайн / Thor Klein) [2013, триллер, детектив, фантастика, BDRip, 1080p] OverUnder / Вертикальная стереопара (MVO) pb.wtf

Проклятое место в 3Д через торрент pb.wtf

Размер: 10.5 GB | Добавлен: 10 мес. назад | Торрент скачан:9 раз
Скачать  

28-02-2020 06:33 Проклятое место в 3Д Скачать торрент  

Проклятое место / Lost Place

Год выпуска: 2013
Страна: Германия (NFP Marketing & Distribution, MovieBrats Films & Animation, Dragonfly Films)
Жанр: триллер, детектив, фантастика
Продолжительность: 01:41:10

Перевод: Профессиональный многоголосый закадровый(online movies (HDTV))
Русские субтитры: нет
Режиссер: Торстен Клайн / Thor Klein

В ролях: Франсуа Геск, Ютта-Мерле Бёрнсен, Пит Буковски, Йозефина Пройсс, Анатоль Таубман

Описание: Четверо подростков отправляются на заброшенную военную базу, где некогда проводились эксперименты с климатическим оружием. Они считают происходящее занятным приключением, но с ними начинают происходить странные и страшные вещи…

Сэмпл: http://sendfile.su/1548100

Качество: BDrip, 1080p
Контейнер: MKV
Формат 3D: OverUnder / Вертикальная стереопара
Порядок ракурсов: левый ракурс первый
Видео кодек: x264
Аудио кодек: AC3
Видео: AVC / High@L5.0 / 23,976 fps / 1920х2160 / 13,3 Мбит/сек
Аудио: Русский / AC3 / 48 KHz / 5.1 ch / 640 Кбит/сек(MVO - Online Movies) (перемонтаж стерео в 5.1 - Ash61)
Аудио 2: Немецкий / AC3 / 48 KHz / 5.1 ch / 640 Кбит/сек

ВНИМАНИЕ ! На встроенных ТВ-плеерах работать не будет!!!

ТВ Samsung в названии которого есть надпись Ultra HD , и LG Ultra HD 800 серии, LG C6P, Xiaomi Mi TV 2 воспроизводят полные стереопары встроенными плеерами
Железные плееры на которых воспроизводятся полные стереопары:Popcorn C-200 , Dune HD Smart D1 , Dune HD DUO , Dune HD Smart H1 , Dune HD Smart B1 , Dune HD Max , Dune HD TV-303D, Dune HD TV-102, Dune HD Base 3D, Philips HMP7001, Aura HD, MECOOL BB2, Zidoo x9s, Lake I Cloud, MiBox 3
Чтобы изображение было на весь экран в плеере выставляем, если рип 1920х1600 - то выставляем 2.35:1 , если 1920х2160 - то выставляем 16:9
Общее
Уникальный идентификатор : 254636540608038842563358109586508998252 (0xBF9136BED28D79D4A76E7170C7B3E66C)
Полное имя : E:\видео\Lost Place.Rip by SeRoGa00.mkv
Формат : Matroska
Версия формата : Version 2
Размер файла : 10,5 Гбайт
Продолжительность : 1 ч. 41 м.
Общий поток : 14,9 Мбит/сек
Дата кодирования : UTC 2020-02-28 05:22:02
Программа кодирования : mkvmerge v3.4.0 ('Rapunzel') сборка от May 15 2010 09:38:20
Библиотека кодирования : libebml v0.8.0 + libmatroska v0.9.0

Видео
Идентификатор : 1
Формат : AVC
Формат/Информация : Advanced Video Codec
Профиль формата : High@L5.0
Параметр CABAC формата : Да
Параметр ReFrames формата : 4 кадра
Идентификатор кодека : V_MPEG4/ISO/AVC
Продолжительность : 1 ч. 41 м.
Битрейт : 13,3 Мбит/сек
Ширина : 1920 пикселей
Высота : 2160 пикселей
Соотношение сторон : 0,889
Частота кадров : 23,976 кадра/сек
Цветовое пространство : YUV
Субдискретизация насыщенности : 4:2:0
Битовая глубина : 8 бит
Тип развёртки : Прогрессивная
Бит/(Пиксели*Кадры) : 0.134
Размер потока : 9,38 Гбайт (89%)
Заголовок : Rip by SeRoGa00
Библиотека кодирования : x264 core 155 r2901 7d0ff22
Настройки программы : cabac=1 / ref=4 / deblock=1:-3:-3 / analyse=0x3:0x113 / me=umh / subme=10 / psy=1 / psy_rd=1.00:0.15 / mixed_ref=1 / me_range=24 / chroma_me=1 / trellis=2 / 8x8dct=1 / cqm=0 / deadzone=21,11 / fast_pskip=1 / chroma_qp_offset=-3 / threads=18 / lookahead_threads=6 / sliced_threads=0 / nr=0 / decimate=0 / interlaced=0 / bluray_compat=0 / constrained_intra=0 / bframes=10 / b_pyramid=2 / b_adapt=2 / b_bias=0 / direct=3 / weightb=1 / open_gop=0 / weightp=2 / keyint=250 / keyint_min=23 / scenecut=40 / intra_refresh=0 / rc_lookahead=60 / rc=crf / mbtree=1 / crf=16.5 / qcomp=0.60 / qpmin=10 / qpmax=69 / qpstep=4 / vbv_maxrate=40000 / vbv_bufsize=40000 / crf_max=0.0 / nal_hrd=none / filler=0 / ip_ratio=1.40 / aq=1:1.00
Язык : English
Default : Нет
Forced : Нет

Аудио #1
Идентификатор : 2
Формат : AC-3
Формат/Информация : Audio Coding 3
Расширение режима : CM (complete main)
Параметр Endianness формата : Big
Идентификатор кодека : A_AC3
Продолжительность : 1 ч. 41 м.
Вид битрейта : Постоянный
Битрейт : 640 Кбит/сек
Каналы : 6 каналов
Расположение каналов : Front: L C R, Side: L R, LFE
Частота : 48,0 КГц
Битовая глубина : 16 бит
Метод сжатия : С потерями
Размер потока : 463 Мбайт (4%)
Язык : Russian
Default : Да
Forced : Нет

Аудио #2
Идентификатор : 3
Формат : AC-3
Формат/Информация : Audio Coding 3
Расширение режима : CM (complete main)
Параметр Endianness формата : Big
Идентификатор кодека : A_AC3
Продолжительность : 1 ч. 41 м.
Вид битрейта : Постоянный
Битрейт : 640 Кбит/сек
Каналы : 6 каналов
Расположение каналов : Front: L C R, Side: L R, LFE
Частота : 48,0 КГц
Битовая глубина : 16 бит
Метод сжатия : С потерями
Размер потока : 463 Мбайт (4%)
Язык : German
Default : Нет
Forced : Нет

Меню
00:00:00.000 : :1
00:11:01.244 : :2
00:19:24.705 : :3
00:27:29.815 : :4
00:37:29.581 : :5
00:48:42.795 : :6
01:00:08.188 : :7
01:11:37.752 : :8
01:21:22.211 : :9
01:29:56.641 : :10
скриншот  

скриншот  

скриншот  

скриншот  

скриншот  

скриншот  
pb.wtf



Скачать Проклятое место в 3Д через торрент https://c.radikal.ru/c01/2002/91/915b86e6c79c.png Скачать фильм Проклятое место в 3Д через торрент бесплантно в хорошем качестве Описание: Четверо подростков отправляются на заброшенную военную базу, где некогда проводились эксперименты с климатическим оружием. Они ... 9 10 3
Торрент: Зарегистрирован [2020-02-28 06:33] · скачан: 9 раз
Статус: √ проверено
Размер: 10.5 GB
Как cкачать? Как скачать Проклятое место в 3Д через торрент | UTorrent

28-11-2019 20:33  

Отключить всю рекламу на сайте

    Дорогой пользователь! Огромная просьба, поблагодарите релизера, оцените раздачу и оставьте свои комментарий, если Вы скачали Проклятое место в 3Д через торрент бесплатно! Внесите свою лепту в развитие PiratBit!
    Комментировать посты могут только пользователи прошедшие не сложную регистрацию
    Показать сообщения:    

    Проклятое место в 3Д через торрент
    Скачать бесплатно Проклятое место в 3Д
    Проклятое место в 3Д скачать торрент
    Проклятое место в 3Д смотреть онлайн
    Cкачать фильм Проклятое место в 3Д бесплатно
    Проклятое место в 3Д скачать торрент в хорошем качестве
    Проклятое место в 3Д смотреть онлайн бесплатно в хорошем качестве


    Вы не можете начинать темы
    Вы не можете отвечать на сообщения
    Вы не можете редактировать свои сообщения
    Вы не можете удалять свои сообщения
    Вы не можете голосовать в опросах
    Вы не можете прикреплять файлы к сообщениям
    Вы можете скачивать файлы