Ссылка на приватное зеркало нашего сайта всего за 1$. Внимание количество ограничено!!!

2 сезон

iTunes

1 сезон

1

iTunes

iTunes

iTunes

1 сезон

RePack

30

ИГРА 18+

pack

ВАЖНО

!!Акция!!

Alien_RageХит недели

RePack

MK11
pack

Забери бонус

RePack

jed

!!Акция!!

Alien_Rage

RePack

fifa19

RePack

Assassins Creed: Odyssey

RePack

NEED FOR SPEED™ PAYBACK

4 сезон

9 сезон

Бесстыжие 9 сезон

Все сериалы

все сериалы на PB.wtf

RePack

FAR CRY 5
  

Московские тайны: Бедная Лиза / Сезон: 7 / Серии: 1-2 из 2 (Артем Насыбулин) [2020, Детектив, криминал, SATRip] pb.wtf

Московские тайны: Бедная Лиза через торрент pb.wtf

Размер: 1.19 GB | Добавлен: 7 мес. назад | Торрент скачан:26 раз
Скачать  

28-02-2020 18:09 Московские тайны: Бедная Лиза Скачать торрент  

Московские тайны: Бедная Лиза
Год выпуска: 2020
Страна: Россия
Жанр: Детектив, криминал
Продолжительность: ~ 00:44:00
Субтитры: отсутствуют

Режиссер: Артем Насыбулин



В ролях: Александра Богданова, Евгений Пронин, Владислав Ветров, Екатерина Семёнова, Александр Робак, Алексей Лонгин, Иван Жвакин, Александр Борисов (II)

Описание: В одном из московских прудов находят утопленницу. Выясняется, что эта молодая женщина по имени Елизавета работала в Театральном музее Бахрушина. Кто мог пожелать ей смерти? Сводный брат, претендовавший на деньги от проданной квартиры? Продавец в антикварном магазине, где покойная незадолго до смерти приобрела ценную книгу? Или же Лиза повторила сюжет Карамзина и в самом деле покончила с собой от несчастной любви, как утверждает ее бывший возлюбленный Эраст, который бросил невесту ради выгодного брака?

Качество: SATRip
Формат: AVI

Видео: 720x400 (1.80:1), 25 fps, XviD build 73 ~1650 kbps avg, 0.23 bit/pixel
Аудио: 48 kHz, MPEG Layer 3, 2 ch, ~192.00 kbps avg
скриншот  скриншот  скриншот  скриншот  скриншот  

Общее
Полное имя : D:\Moskovskie.tayni.Bednaya.liza.2019.XviD.SATRip.25Kuzmich\Moskovskie.tayni.Bednaya.liza.(01.seriya.iz.02).XviD.SATRip.25Kuzmich.avi
Формат : AVI
Формат/Информация : Audio Video Interleave
Размер файла : 600 Мбайт
Продолжительность : 44 м. 32 с.
Общий поток : 1883 Кбит/сек
Программа кодирования : VirtualDubMod 1.5.10.3 | www.virtualdub-fr.org || (build 2550/release)
Библиотека кодирования : VirtualDubMod build 2550/release

Видео
Идентификатор : 0
Формат : MPEG-4 Visual
Профиль формата : Advanced Simple@L5
Параметр BVOP формата : 1
Параметр QPel формата : Нет
Параметр GMC формата : Без точки перехода
Параметр матрицы формата : Default (MPEG)
Идентификатор кодека : XVID
Идентификатор кодека/Подсказка : XviD
Продолжительность : 44 м. 32 с.
Битрейт : 1681 Кбит/сек
Ширина : 720 пикселей
Высота : 400 пикселей
Соотношение сторон : 16:9
Частота кадров : 25,000 кадров/сек
Цветовое пространство : YUV
Субдискретизация насыщенности : 4:2:0
Битовая глубина : 8 бит
Тип развёртки : Прогрессивная
Метод сжатия : С потерями
Бит/(Пиксели*Кадры) : 0.233
Размер потока : 536 Мбайт (89%)
Библиотека кодирования : XviD 73

Аудио
Идентификатор : 1
Формат : MPEG Audio
Версия формата : Version 1
Профиль формата : Layer 3
Режим : Joint stereo
Идентификатор кодека : 55
Идентификатор кодека/Подсказка : MP3
Продолжительность : 44 м. 32 с.
Вид битрейта : Постоянный
Битрейт : 192 Кбит/сек
Каналы : 2 канала
Частота : 48,0 КГц
Метод сжатия : С потерями
Размер потока : 61,2 Мбайт (10%)
Выравнивание : Соединение по промежуткам
Продолжительность промежутка : 40 мс. (1,00 видеокадр)
Время предзагрузки промежутка : 504 мс.
Библиотека кодирования : LAME3.99r
Настройки программы : -m j -V 4 -q 2 -lowpass 18.6 -b 192

pb.wtf



Скачать Московские тайны: Бедная Лиза через торрент https://d.radikal.ru/d42/2002/8e/9c1f20beb32f.jpg Скачать фильм Московские тайны: Бедная Лиза через торрент бесплантно в хорошем качестве Описание: В одном из московских прудов находят утопленницу. Выясняется, что эта молодая женщина по имени Елизавета работала в Театральном ... 9.3 10 3
Торрент: Зарегистрирован [2020-02-28 18:09] · скачан: 26 раз
Статус: √ проверено
Размер: 1.19 GB
Как cкачать? Как скачать Московские тайны: Бедная Лиза через торрент | qTorrent

% Раздел Тема Автор DL S | L
Наши сериалы [ 1.14 GB ] Московские тайны: Бедная Лиза / Сезон: 7 / Серии: 1-2 из 2 [2020 WEB-DLRip] bober100 Скачать
1 | 0
Наши сериалы [ 1.12 GB ] Московские тайны: Бедная Лиза / Сезон: 7 / Серии: 1-2 из 2 [2020 WEB-DLRip-AVC] bober100 Скачать
1 | 0
Наши сериалы [ 1.04 GB ] Московские тайны. Бедная Лиза / Сезон: 7 / Серии: 1-2 из 2 [2019 SATRip-AVC] aleksan55 Скачать
1 | 0

28-11-2019 20:33  

Отключить всю рекламу на сайте

    Дорогой пользователь! Огромная просьба, поблагодарите релизера, оцените раздачу и оставьте свои комментарий, если Вы скачали Московские тайны: Бедная Лиза через торрент бесплатно! Внесите свою лепту в развитие PiratBit!
    Комментировать посты могут только пользователи прошедшие не сложную регистрацию
    Показать сообщения:    

    Московские тайны: Бедная Лиза через торрент
    Скачать бесплатно Московские тайны: Бедная Лиза
    Московские тайны: Бедная Лиза скачать торрент
    Московские тайны: Бедная Лиза смотреть онлайн
    Cкачать фильм Московские тайны: Бедная Лиза бесплатно
    Московские тайны: Бедная Лиза скачать торрент в хорошем качестве
    Московские тайны: Бедная Лиза смотреть онлайн бесплатно в хорошем качестве


    Вы не можете начинать темы
    Вы не можете отвечать на сообщения
    Вы не можете редактировать свои сообщения
    Вы не можете удалять свои сообщения
    Вы не можете голосовать в опросах
    Вы не можете прикреплять файлы к сообщениям
    Вы можете скачивать файлы