Ссылка на приватное зеркало нашего сайта всего за 1$. Внимание количество ограничено!!!

2 сезон

iTunes

1 сезон

1

2 сезон

2 сезон

iTunes

1 сезон

RePack

30

Ultimate

ВАЖНО

ИГРА 18+

pack

RePack

MK11
pack

Забери бонус

RePack

jed

!!Акция!!

Alien_Rage

RePack

fifa19

RePack

Assassins Creed: Odyssey

RePack

NEED FOR SPEED™ PAYBACK

4 сезон

9 сезон

Бесстыжие 9 сезон

Все сериалы

все сериалы на PB.wtf

RePack

FAR CRY 5
  

Соната / The Sonata (Эндрю Десмонд) [2018, Триллер, BD Remux 1080p] DUB [iTunes] pb.wtf

Соната через торрент pb.wtf

Размер: 19.27 GB | Добавлен: 9 мес. назад | Торрент скачан:18 раз
Скачать  

28-02-2020 18:16 Соната Скачать торрент  

Соната | The Sonata Год выпуска: 2018
Страна: Россия, Великобритания, Латвия, Франция
Студия: The Project, Featuristic Films, CTB Film Company
Жанр: Триллер
Продолжительность: 01:27:54
Перевод: Дублированный | iTunes
Субтитры: Русские (Forced), английские

Режиссер: Эндрю Десмонд

rating

В ролях: Фрея Тингли, Рутгер Хауэр, Симон Абкарян, Джеймс Фолкнер, Мэтт Барбер, Катрин Шауб-Абкариан, Джеймс Кермак, Кристофер Брэнд

Описание: Виртуозная скрипачка Роза наследует старое поместье отца — знаменитого композитора, который ушел из жизни при странных обстоятельствах. Ничего не зная о жизни отца-затворника, Роза берется за расшифровку последней написанной им сонаты и невольно запускает изощренный механизм, задуманный композитором задолго до ее рождения. Кажется, и дом, и его окрестности хранят такие тайны, что даже самое талантливое произведение их не искупит.

Качество: BD Remux 1080p
Формат: MKV

Видео: MPEG-4 AVC, 1920x1080, 27.0 Mbit/s, 23.976 fps
Аудио #01: 48 kHz, AC3, 5.1, 384 Kbps | iTunes | RUS |
Аудио #02: 48 kHz, DTS-HD MA, 5.1, 3984 Kbps | Оригинал | ENG |
скриншот  скриншот  скриншот  скриншот  скриншот  

General
Unique ID : 44930312523174535074898068091644129057 (0x21CD4370246E7B7CBB58D921DBD7AF21)
Complete name : E:Video111The.Sonata.2018.BDREMUX.1080p.seleZen.mkv
Format : Matroska
Format version : Version 4
File size : 19.3 GiB
Duration : 1 h 27 min
Overall bit rate mode : Variable
Overall bit rate : 31.4 Mb/s
Movie name : Sonata 2018 from селезень
Encoded date : UTC 2020-02-28 17:54:21
Writing application : mkvmerge v40.0.0 ('Old Town Road + Pony') 64-bit
Writing library : libebml v1.3.9 + libmatroska v1.5.2

Video
ID : 1
Format : AVC
Format/Info : Advanced Video Codec
Format profile : High@L4.1
Format settings : CABAC / 4 Ref Frames
Format settings, CABAC : Yes
Format settings, Reference : 4 frames
Format settings, GOP : M=3, N=12
Codec ID : V_MPEG4/ISO/AVC
Duration : 1 h 27 min
Bit rate mode : Variable
Bit rate : 27.0 Mb/s
Maximum bit rate : 32.2 Mb/s
Width : 1 920 pixels
Height : 1 080 pixels
Display aspect ratio : 16:9
Frame rate mode : Constant
Frame rate : 23.976 (24000/1001) FPS
Standard : NTSC
Color space : YUV
Chroma subsampling : 4:2:0
Bit depth : 8 bits
Scan type : Progressive
Bits/(Pixel*Frame) : 0.543
Stream size : 16.6 GiB (86%)
Language : English
Default : Yes
Forced : No
Color range : Limited
Color primaries : BT.709
Transfer characteristics : BT.709
Matrix coefficients : BT.709

Audio #1
ID : 2
Format : AC-3
Format/Info : Audio Coding 3
Commercial name : Dolby Digital
Codec ID : A_AC3
Duration : 1 h 27 min
Bit rate mode : Constant
Bit rate : 384 kb/s
Channel(s) : 6 channels
Channel layout : L R C LFE Ls Rs
Sampling rate : 48.0 kHz
Frame rate : 31.250 FPS (1536 SPF)
Compression mode : Lossy
Stream size : 241 MiB (1%)
Title : iTunes
Language : Russian
Service kind : Complete Main
Default : Yes
Forced : Yes

Audio #2
ID : 3
Format : DTS XLL
Format/Info : Digital Theater Systems
Commercial name : DTS-HD Master Audio
Codec ID : A_DTS
Duration : 1 h 27 min
Bit rate mode : Variable
Bit rate : 3 984 kb/s
Channel(s) : 6 channels
Channel layout : C L R Ls Rs LFE
Sampling rate : 48.0 kHz
Frame rate : 93.750 FPS (512 SPF)
Bit depth : 24 bits
Compression mode : Lossless
Stream size : 2.45 GiB (13%)
Title : Original
Language : English
Default : No
Forced : No

Text #1
ID : 4
Format : UTF-8
Codec ID : S_TEXT/UTF8
Codec ID/Info : UTF-8 Plain Text
Duration : 40 min 41 s
Bit rate : 19 b/s
Count of elements : 104
Stream size : 5.68 KiB (0%)
Title : Forced
Language : Russian
Default : Yes
Forced : Yes

Text #2
ID : 5
Format : UTF-8
Codec ID : S_TEXT/UTF8
Codec ID/Info : UTF-8 Plain Text
Duration : 1 h 14 min
Bit rate : 41 b/s
Count of elements : 779
Stream size : 23.0 KiB (0%)
Title : Full
Language : English
Default : No
Forced : No

Menu
00:00:00.000 : en:Глава 01
00:06:49.576 : en:Глава 02
00:13:23.094 : en:Глава 03
00:20:23.389 : en:Глава 04
00:27:07.584 : en:Глава 05
00:34:15.762 : en:Глава 06
00:39:14.352 : en:Глава 07
00:49:21.876 : en:Глава 08
00:56:24.506 : en:Глава 09
01:04:41.419 : en:Глава 10
01:12:57.665 : en:Глава 11
01:22:45.752 : en:Глава 12

pb.wtf



Скачать Соната через торрент https://img10.lostpic.net/2020/02/28/851a50d49a78ab97c9d91559817e5db5.jpg Скачать фильм Соната через торрент бесплантно в хорошем качестве Описание: Виртуозная скрипачка Роза наследует старое поместье отца — знаменитого композитора, который ушел из жизни при странных ... 9.3 10 4
Торрент: Зарегистрирован [2020-02-28 18:16] · скачан: 18 раз
Статус: √ проверено
Размер: 19.27 GB
Как cкачать? Как скачать Соната через торрент | qTorrent

% Раздел Тема Автор DL S | L
Фильмы 2018 [DVDrip, WEB-DLRip, HDrip] (DUB, MVO) [ 1.42 GB ] Соната / The Sonata [2018 BDRip] - Twi7ter Скачать
4 | 0
Фильмы [HD 720p, 1080p] (Хороший звук DUB, MVO) [ 3.7 GB ] Соната / The Sonata [2018 BDRip 720p] bober100 Скачать
1 | 0
Фильмы [HD 720p, 1080p] (Хороший звук DUB, MVO) [ 7.07 GB ] Соната / The Sonata [2018 BDRip 1080p] bober100 Скачать
2 | 0
Фильмы 2018 [DVDrip, WEB-DLRip, HDrip] (DUB, MVO) [ 1.46 GB ] Соната / The Sonata [2018 BDRip] bober100 Скачать
1 | 0
Фильмы (WEB-DL 720p, 1080p) [ 2.9 GB ] Соната / The Sonata [2018 WEB-DL 1080p] killermax2013 Скачать
2 | 0
Фильмы (WEB-DL 720p, 1080p) [ 2.59 GB ] Соната / The Sonata [2018 WEB-DL 720p] bober100 Скачать
1 | 0
Фильмы 2018 [DVDrip, WEB-DLRip, HDrip] (DUB, MVO) [ 747 MB ] Соната / The Sonata [2018 BDRip] bober100 Скачать
1 | 0

28-11-2019 20:33  

Отключить всю рекламу на сайте

    Дорогой пользователь! Огромная просьба, поблагодарите релизера, оцените раздачу и оставьте свои комментарий, если Вы скачали Соната через торрент бесплатно! Внесите свою лепту в развитие PiratBit!
    Комментировать посты могут только пользователи прошедшие не сложную регистрацию
    Показать сообщения:    

    Соната через торрент
    Скачать бесплатно Соната
    Соната скачать торрент
    Соната смотреть онлайн
    Cкачать фильм Соната бесплатно
    Соната скачать торрент в хорошем качестве
    Соната смотреть онлайн бесплатно в хорошем качестве


    Вы не можете начинать темы
    Вы не можете отвечать на сообщения
    Вы не можете редактировать свои сообщения
    Вы не можете удалять свои сообщения
    Вы не можете голосовать в опросах
    Вы не можете прикреплять файлы к сообщениям
    Вы можете скачивать файлы