Ссылка на приватное зеркало нашего сайта всего за 1$. Внимание количество ограничено!!!

2 сезон

iTunes

1 сезон

1

2 сезон

2 сезон

iTunes

1 сезон

RePack

30

Новинка

ВАЖНО

ИГРА 18+

pack

RePack

MK11
pack

Забери бонус

RePack

jed

!!Акция!!

Alien_Rage

RePack

fifa19

RePack

Assassins Creed: Odyssey

RePack

NEED FOR SPEED™ PAYBACK

4 сезон

9 сезон

Бесстыжие 9 сезон

Все сериалы

все сериалы на PB.wtf

RePack

FAR CRY 5
  

Особенные / Hors normes (Оливье Накаш, Эрик Толедано) [2019, Драма, комедия, WEB-DL 720p] DUB [iTunes] pb.wtf

Особенные через торрент pb.wtf

Раздают: 1 [ 0 KB/s ]
Размер: 3.52 GB | Добавлен: 9 мес. назад | Торрент скачан:146 раз
Скачать  

28-02-2020 19:46 Особенные Скачать торрент  

Особенные | Hors normes
Год выпуска: 2019
Страна: Франция
Студия: 120 Films, Canal+ [fr], Ciné...
Жанр: Драма, комедия
Продолжительность: 01:53:29
Перевод: Дублированный | iTunes
Субтитры: отсутствуют

Режиссер: Оливье Накаш, Эрик Толедано

rating

В ролях: Венсан Кассель, Реда Катеб, Элен Венсан, Брайан Мьялундама, Альбан Иванов, Бенжамин Лесьер, Марко Локателли, Катрин Муше, Фредерик Пьеро, Сулиан Брахим

Описание: Они живут среди нас, встречаются на улицах, в вагонах метро и подъездах многоэтажек. Мы не замечаем их существования или просто боимся заметить. Это мог бы быть сюжет фильма о супергероях. Но они не парят над землей и не стреляют молниями. Это история о людях, которым отчаянно нужна помощь, и о человеке, подарившем им всю свою жизнь.

Качество: WEB-DL 720p
Формат: MKV

Видео: 1280x536 at 23.976 fps, MPEG-4 AVC, ~4051 kbps avg
Аудио Russian: 48 kHz, AC3, 3/2 (L,C,R,l,r) + LFE ch, ~384 kbps avg
скриншот  скриншот  скриншот  скриншот  скриншот  

General
Unique ID : 280565507211116390457427136015011926705 (0xD312F37FE0AE28BEF6E8037732D3D2B1)
Complete name : Hors.normes.2019.720p.WEB-DL.Rus.mkv
Format : Matroska
Format version : Version 4
File size : 3.52 GiB
Duration : 1 h 53 min
Overall bit rate : 4 437 kb/s
Encoded date : UTC 2020-02-28 19:15:10
Writing application : mkvmerge v43.0.0 ('The Quartermaster') 64-bit
Writing library : libebml v1.3.10 + libmatroska v1.5.2
Cover : Yes
Attachments : cover.jpg

Video
ID : 1
Format : AVC
Format/Info : Advanced Video Codec
Format profile : Main@L3.1
Format settings : 2 Ref Frames
Format settings, CABAC : No
Format settings, Reference : 2 frames
Codec ID : V_MPEG4/ISO/AVC
Duration : 1 h 53 min
Bit rate : 4 051 kb/s
Width : 1 280 pixels
Height : 536 pixels
Display aspect ratio : 2.40:1
Frame rate mode : Constant
Frame rate : 23.976 (24000/1001) FPS
Color space : YUV
Chroma subsampling : 4:2:0
Bit depth : 8 bits
Scan type : Progressive
Bits/(Pixel*Frame) : 0.246
Stream size : 3.21 GiB (91%)
Title : Main Program
Language : French
Default : Yes
Forced : No
Color range : Limited
Color primaries : BT.709
Transfer characteristics : BT.709
Matrix coefficients : BT.709

Audio
ID : 2
Format : AC-3
Format/Info : Audio Coding 3
Commercial name : Dolby Digital
Codec ID : A_AC3
Duration : 1 h 53 min
Bit rate mode : Constant
Bit rate : 384 kb/s
Channel(s) : 6 channels
Channel layout : L R C LFE Ls Rs
Sampling rate : 48.0 kHz
Frame rate : 31.250 FPS (1536 SPF)
Compression mode : Lossy
Stream size : 312 MiB (9%)
Title : Russian DUB from iTunes Russia DD 5.1
Language : Russian
Service kind : Complete Main
Default : Yes
Forced : No

Menu
00:00:00.000 : en:Глава 1
00:06:54.372 : en:Глава 2
00:15:09.241 : en:Глава 3
00:25:09.591 : en:Глава 4
00:37:04.347 : en:Глава 5
00:43:33.152 : en:Глава 6
00:51:16.949 : en:Глава 7
00:58:39.391 : en:Глава 8
01:04:28.823 : en:Глава 9
01:10:21.759 : en:Глава 10
01:17:54.169 : en:Глава 11
01:23:30.505 : en:Глава 12
01:32:27.375 : en:Глава 13
01:37:19.166 : en:Глава 14
01:41:45.056 : en:Глава 15

pb.wtf



Скачать Особенные через торрент https://c.radikal.ru/c39/2002/56/7e44d90730cb.png Скачать фильм Особенные через торрент бесплантно в хорошем качестве Описание: Они живут среди нас, встречаются на улицах, в вагонах метро и подъездах многоэтажек. Мы не замечаем их существования или просто ... 10 10 6
Торрент: Зарегистрирован [2020-02-28 19:46] · скачан: 146 раз
Статус: √ проверено
Размер: 3.52 GB
Как cкачать? Как скачать Особенные через торрент | qTorrent

% Раздел Тема Автор DL S | L
Фильмы 2019-2020 [DVDrip, WEB-DLRip, HDrip] (DUB, MVO) [ 746 MB ] Особенные / Hors normes [2019 HDRip] bober100 Скачать
1 | 0
Фильмы [HD 720p, 1080p] (Хороший звук DUB, MVO) [ 5.84 GB ] Особенные / Hors normes [2019 BDRip 720p] bober100 Скачать
1 | 0
Фильмы [HD 720p, 1080p] (Хороший звук DUB, MVO) [ 10.74 GB ] Особенные / Hors normes [2019 BDRip 1080p] bober100 Скачать
1 | 0
Фильмы (Blu-ray, BD-Remux, HDDVD) [ 26.4 GB ] Особенные / Hors normes [2019 BD Remux 1080p] bober100 Скачать
1 | 0
Фильмы (WEB-DL 720p, 1080p) [ 3.94 GB ] Особенные / Hors normes [2019 WEB-DL 1080p] bober100 Скачать
7 | 0
Фильмы 2019-2020 [DVDrip, WEB-DLRip, HDrip] (DUB, MVO) [ 1.41 GB ] Особенные / Hors normes [2019 BDRip] bober100 Скачать
3 | 0

28-11-2019 20:33  

Отключить всю рекламу на сайте

29-02-2020 04:30 Особенные Скачать торрент  

прачокено?pb.wtf



    Дорогой пользователь! Огромная просьба, поблагодарите релизера, оцените раздачу и оставьте свои комментарий, если Вы скачали Особенные через торрент бесплатно! Внесите свою лепту в развитие PiratBit!
    Комментировать посты могут только пользователи прошедшие не сложную регистрацию
    Показать сообщения:    

    Особенные через торрент
    Скачать бесплатно Особенные
    Особенные скачать торрент
    Особенные смотреть онлайн
    Cкачать фильм Особенные бесплатно
    Особенные скачать торрент в хорошем качестве
    Особенные смотреть онлайн бесплатно в хорошем качестве


    Вы не можете начинать темы
    Вы не можете отвечать на сообщения
    Вы не можете редактировать свои сообщения
    Вы не можете удалять свои сообщения
    Вы не можете голосовать в опросах
    Вы не можете прикреплять файлы к сообщениям
    Вы можете скачивать файлы